<?xml version="1.0" standalone="no"?>
<!DOCTYPE svg PUBLIC "-//W3C//DTD SVG 1.1//EN" "http://www.w3.org/Graphics/SVG/1.1/DTD/svg11.dtd">
<svg xmlns="http://www.w3.org/2000/svg">
<metadata>Copyright (C) 2012 by original authors @ fontello.com</metadata>
<defs>
<font id="icons" horiz-adv-x="1000" >
<font-face font-family="icons" font-weight="400" font-stretch="normal" units-per-em="1000" ascent="850" descent="-150" />
<missing-glyph horiz-adv-x="1000" />
<glyph glyph-name="windy-rain-inv" unicode="&#xe9bd;" d="M0 318q0 13 9 21t22 9l250 0q14 0 22-9t9-21q0-13-9-23t-22-10l-250 0q-13 0-22 10t-9 23z m0 125q0 13 9 21t22 9l125 0q14 0 22-9t9-21q0-13-9-23t-22-10l-125 0q-13 0-22 10t-9 23z m62 125q0 13 9 21t22 9l125 0q14 0 22-9t9-21q0-13-9-23t-22-10l-125 0q-13 0-22 10t-9 23z m209-50q0 78 54 134t132 60q74 76 179 76t179-76q78-3 132-60t54-134q0-82-57-139t-139-57q-18 0-33 2-62-39-136-39t-136 39q-16-2-35-2-80 0-137 57t-57 139z m166-418q0 35 62 125l16-23q18-27 31-55 16-32 16-47 0-25-19-44t-44-19-44 19-19 44z m250-125q0 35 62 125l16-23q18-27 31-55 16-32 16-47 0-25-19-44t-44-19-44 19-19 44z" horiz-adv-x="1000" />
<glyph glyph-name="duckduckgo" unicode="&#x21;" d="M0 349q0 215 141 356t356 141 356-141 141-356q0-182-103-313t-280-171q-9 17-34 52t-35 56q64-26 86-26 16 0 16 50 0 93-17 93-25 0-97-55 0 14-15 12l-5 0q-26 69-26 123 0 15 3 30 92-45 148-45 31 0 94 18t63 39q0 13-17 13-26 0-75-7t-75-7q-27 0-60 14t-33 38q0 5 2 8t5 3 6 0 8-1 9-1q9 0 26-3t25-3q31 0 127 37t96 57q0 12-19 17t-35 5q-14 0-42-8t-61-18-44-14q4 20 4 32 0 47-25 110t-58 93q-27 24-72 33-28 36-88 66t-106 30q-9 0-28-4t-24-5l-22-31 6-1q7 0 22 2t22 2q34 0 78-14-28-14-49-19-2-1-13-3t-19-3-14-6-7-12q56 6 84 6 38 0 60-7-77-9-119-53t-42-121q0-27 4-50 19-120 73-358 33-154 37-170l1-4q-160 50-251 186t-91 308z m283 124q0-6 3-12-1 16 18 28t36 12q8 0 20-5-10 13-29 13-17 0-33-10t-16-27z m33-75q0 13 11 24t24 11 24-11 11-24-11-24-24-11-24 11-11 24z m40 11q0-8 9-8t9 8q0 9-9 9t-9-9z m168 87q8 13 37 13 13 0 33-10-10 22-35 22-31 0-35-25z m23-78q0 12 9 21t20 9q12 0 21-9t9-21q0-11-9-20t-21-9q-11 0-20 9t-9 20z m35 10q0-8 7-8 8 0 8 8 0 7-8 7-7 0-7-7z" horiz-adv-x="992" />
<glyph glyph-name="aim" unicode="&#x22;" d="M0 432q0 105 53 188t137 132 181 74 195 25q29 0 43-1 115-6 226-41 87-28 166-75t147-109 108-147 41-176q0-13-1-19-11-152-121-256t-269-147q-107-30-229-30l-8 0q-201 0-315 53-6 2-7 6 0 2 3 2 1 0 4-1t4-1q50-12 89-12 24 0 47 5t44 20 21 40q0 12-6 24-9 16-59 34t-114 34-76 20q-80 26-139 66 0 1 4 10t6 15 7 12 9 6l179 0q9 0 17-22t21-44 36-22q18 0 31 12t13 30q0 11-84 199t-106 231q-6 15-16 15-8 0-13-9l-3-6q-8-15-52-114l-107-238-7-15q-95 109-95 234z m218-166q0 10 54 129l5 3q6 0 33-64t27-70q0-4-5-4l-108 0q-5 0-5 5z m307-123q0-45 47-45t47 45l0 388q0 45-47 45t-47-45l0-388z m185 0q0-45 47-45t47 45l0 181 92-185q13-29 41-29 32 0 46 29l91 185 0-181q0-45 47-45 48 0 48 45l0 388q0 45-47 45-35 0-47-29l-138-302-133 302q-14 29-48 29-46 0-46-45l0-388z" horiz-adv-x="1294" />
<glyph glyph-name="snow-inv" unicode="&#xe9be;" d="M0 506q0 90 64 154t154 64q18 0 31-2 43 61 109 94 67 33 141 33t141-33q66-33 109-94 14 2 31 2 90 0 154-64t64-154-64-154-154-64q-41 0-78 14-88-76-203-76t-203 76q-37-14-78-14-90 0-154 64t-64 154z m347-544q4 15 16 20l35 21q-3 19 0 37l-35 20q-12 8-16 21t3 27q7 13 20 17t27-4l35-21q14 14 31 20l0 41q0 14 11 24t24 11 24-11 11-24l0-41q18-6 31-20l35 21q14 8 27 4t20-17q7-13 3-27t-16-21l-35-20q3-19 0-37l35-21q12-6 16-20t-3-26q-7-12-21-16t-27 4l-35 20q-14-12-31-18l0-41q0-15-10-25t-25-10-25 10-10 25l0 41q-17 6-31 18l-35-20q-14-7-27-4t-21 16q-7 12-3 26z m117 61q0-15 11-24t24-10 23 10q12 10 12 24t-11 24-24 10-24-10-11-24z" horiz-adv-x="1000" />
<glyph glyph-name="snow-heavy-inv" unicode="&#xe9bf;" d="M0 506q0 90 64 154t154 64q18 0 31-2 43 61 109 94 67 33 141 33t141-33q66-33 109-94 14 2 31 2 90 0 154-64t64-154-64-154-154-64q-41 0-78 14-88-76-203-76t-203 76q-37-14-78-14-90 0-154 64t-64 154z m60-392q-5 20 15 25l23 6q0 12 6 21l-18 18q-14 14 0 28 14 15 29 1l18-18q9 3 21 6l6 23q6 20 25 14t14-25l-6-23q5-3 8-6 4-4 8-10l23 8q20 3 25-16 6-20-16-25l-23-6q0-12-6-21l18-18q16-14 1-28-15-15-30-1l-16 18q-11-3-21-6l-8-23q-4-20-24-15t-15 26l6 23q-7 3-16 16l-23-8q-20-3-24 16z m84 12q15-14 29 0t-1 27q-14 16-28 1-15-15 0-28z m204-163q4 15 16 20l35 21q-3 19 0 37l-35 20q-12 8-16 21t3 27q7 13 20 17t27-4l35-21q14 14 31 20l0 41q0 14 11 24t24 11 24-11 11-24l0-41q18-6 31-20l35 21q14 8 27 4t20-17q7-13 3-27t-16-21l-35-20q3-19 0-37l35-21q12-6 16-20t-3-26q-7-12-21-16t-27 4l-35 20q-14-12-31-18l0-41q0-15-10-25t-25-10-25 10-10 25l0 41q-17 6-31 18l-35-20q-14-7-27-4t-21 16q-7 12-3 26z m117 61q0-15 11-24t24-10 23 10q12 10 12 24t-11 24-24 10-24-10-11-24z m277 81q6 20 25 14l23-6q3 5 8 10 3 3 8 6l-6 23q-6 20 14 25t25-14l6-23q12-2 21-6l18 18q15 14 29-1t0-28l-18-18q6-10 6-21l23-6q20-6 15-25t-24-16l-23 8q-8-12-16-16l6-23q6-21-15-26-20-5-24 15l-8 23q-12 2-21 6l-16-18q-16-14-30 1-15 14 1 28l18 18q-6 9-6 21l-23 6q-21 6-16 25z m85-41q15-14 29 0t-1 27q-14 16-28 1-15-15 0-28z" horiz-adv-x="1000" />
<glyph glyph-name="hash" unicode="&#x23;" d="M799 462l-153 0-28-223 181 0 0-112-195 0-28-223-112 0 28 223-223 0-28-223-111 0 27 223-139 0 0 112 154 0 27 223-181 0 0 112 196 0 27 223 112 0-28-223 223 0 28 223 112 0-28-223 139 0 0-112z m-293-223l28 223-223 0-28-223 223 0z" horiz-adv-x="817" />
<glyph glyph-name="delicious" unicode="&#xe8ea;" d="M0-150l0 501 501 0 0-501-501 0z m509 499l0 501 500 0 0-501-500 0z" horiz-adv-x="1009" />
<glyph glyph-name="paypal" unicode="&#x24;" d="M0-41l194 891 438 0q50 0 97-18t85-56 53-95-1-135q-29-136-129-214t-234-78l-183 0-63-296-257 0z m100-109l257 0 63 295 184 0q134 0 233 78t129 214q28 135-43 219 33-74 12-170-29-136-129-214t-234-78l-183 0-63-295-216 0z m257 575l83 0 42 183 125 0q2 0 17-3-8 29-32 47t-56 18l-125 0z m125 1q48 2 90 37t53 84q0 2 1 6t1 6l-114 0z" horiz-adv-x="974" />
<glyph glyph-name="money-1" unicode="&#xebce;" d="M238 378c14 16 35 21 65 24l0-85c-50 5-75 9-75 39 0 8 3 15 10 23z m108-241l0 91c59-5 78-9 78-35 0-30-24-49-78-56z m70 244c30-16 36-24 36-38l8-4 45 90-6 5c-6-5-10-8-14-8s-8 0-13 4c-61 24-90 35-126 35l0 18c0 9 5 15 20 19l0 9-79 0 0-9c14-4 16-11 16-19l0-15c-96-4-153-50-153-123 0-74 40-100 153-110l0-96c-78 8-116 38-116 64l-8 4-41-94 6-4c6 4 9 5 13 5 1 0 6 0 9-3 48-24 94-38 138-40l0-19c0-10-3-16-16-20l0-9 79 0 0 9c-15 4-20 9-20 20l0 19c96 5 159 54 159 126 0 70-53 106-149 115l-10 0 0 88c23-1 46-8 70-20z m41 181c116-50 198-165 198-300 0-181-146-328-326-328-181 0-328 146-328 328 0 135 81 250 198 300l-81 179c0 18 11 25 28 25l366 0c16 0 28-6 28-25z" horiz-adv-x="654" />
<glyph glyph-name="hail-inv" unicode="&#xe9c0;" d="M0 506q0 90 64 154t154 64q18 0 31-2 43 61 109 94 67 33 141 33t141-33q66-33 109-94 14 2 31 2 90 0 154-64t64-154-64-154-154-64q-41 0-78 14-88-76-203-76t-203 76q-37-14-78-14-90 0-154 64t-64 154z m125-344q0 25 19 44t44 19 43-20q20-18 20-43t-19-44-44-19-44 19-19 44z m125-250q0 25 19 44t44 19 43-20q20-18 20-43t-19-44-44-19-44 19-19 44z m187 187q0 25 19 44t44 19 43-20q20-18 20-43t-19-44-44-19-44 19-19 44z m187-187q0 25 19 44t44 19 43-20q20-18 20-43t-19-44-44-19-44 19-19 44z m125 250q0 25 19 44t44 19 43-20q20-18 20-43t-19-44-44-19-44 19-19 44z" horiz-adv-x="1000" />
<glyph glyph-name="flattr" unicode="&#x25;" d="M0-37l0 514q0 179 85 278t260 99l548 0q-5-5-53-53t-100-101-109-110-95-93-42-37q-15 0-15 16l0 156-48 0q-59 0-95-7t-63-26-39-57-12-96l0-262z m67-117q5 5 53 53t100 101 109 110 95 93 42 37q15 0 15-16l0-156 48 0q116 0 162 36t46 150l0 262 224 223 0-514q0-179-85-278t-260-99l-548 0z" horiz-adv-x="959" />
<glyph glyph-name="clouds-inv" unicode="&#xe9c1;" d="M2 234q0 91 64 155t154 64q15 0 31-4 0 1 1 3t1 3q-2 16-2 29 0 70 51 122 50 52 123 52 8 0 14-2 72 90 187 90t187-90q5 2 14 2 73 0 123-52 51-52 51-122 0-68-47-117 47-61 47-133 0-92-64-155t-154-63q-41 0-78 14-88-76-203-76t-203 76q-37-14-78-14-90 0-154 63t-64 154z" horiz-adv-x="1000" />
<glyph glyph-name="android" unicode="&#x26;" d="M0 201l0 269q0 26 19 45t44 19q26 0 45-19t19-45l0-269q0-26-19-45t-45-19-45 19-19 45z m173-100l0 418 574 0 0-418q0-26-19-45t-45-19l-448 0q-26 0-45 19t-19 45z m0 465l574 0q0 115-85 189t-202 74-202-74-85-189z m101 316q0 8 7 8 3 0 7-2l49-89-15-8q-48 88-48 91z m15-807q0 27 19 45t47 18q25 0 44-19t19-44l0-202q0-28-19-46t-47-18q-26 0-45 19t-19 45l0 202z m5 620q0 16 12 28t28 12 28-12 12-28q0-17-12-29t-29-12q-16 0-28 12t-12 28z m208-620q0 27 20 45t47 18q26 0 45-19t19-45l0-202q0-28-19-46t-47-18q-26 0-45 19t-19 45l0 202z m45 620q0 16 12 28t28 12 28-12 12-28q0-17-12-29t-28-12-28 12-12 28z m36 104q2 3 14 29t24 44 19 19 7-9l0-2-48-89z m211-598l0 268q0 26 19 45t45 19 45-19 19-45l0-268q0-26-19-45t-45-19-45 19-18 45z" horiz-adv-x="920" />
<glyph glyph-name="clouds-flash-inv" unicode="&#xe9c2;" d="M0 336q0 90 64 154t154 64q18 0 31-2 1 4 4 4-4 19-4 29 0 72 51 123t123 51l14 0q72 90 187 90t187-90l14 0q72 0 123-51t51-123q0-66-47-117 47-59 47-133 0-90-64-154t-154-64q-41 0-78 14-81-72-193-74l-10-20 62-62-187-125 62 125-62 62 45 29q-72 20-123 64-37-14-78-14-90 0-154 64t-64 154z" horiz-adv-x="1000" />
<glyph glyph-name="temperature" unicode="&#xe9c3;" d="M375 37q0 72 62 107l0 574q0 29 19 49 18 20 44 20t44-20q19-20 19-49l0-574q62-35 62-107 0-51-37-88t-89-37q-52 0-88 37-36 38-36 88z" horiz-adv-x="1000" />
<glyph glyph-name="eventful" unicode="&#x27;" d="M0 351q0 107 29 202 28 92 83 159 56 67 135 102 81 36 178 36 128 0 217-61 90-59 136-157 46-95 46-196 0-93-47-120t-132-27l-423 0q0-85 30-148 29-65 76-96 50-33 106-33 41 0 71 10 31 10 62 33 31 22 56 47t66 69q15 16 47 16 34 0 54-21 21-21 21-58 0-32-23-78-21-43-70-85-46-41-116-68-71-27-161-27-209 0-325 135-116 136-116 366z m222 78l392 0q-7 125-60 188-51 62-136 62-82 0-133-63-52-63-63-187z" horiz-adv-x="824" />
<glyph glyph-name="compass-2" unicode="&#x28;" d="M0 350q0 207 146 353t353 146 353-146 146-353-146-353-353-146-353 146-146 353z m125 0q0-154 110-264t264-110 264 109q111 111 111 265t-110 264-264 110-264-110-110-264z m187-187l125 250 250 125-125-250z" horiz-adv-x="1000" />
<glyph glyph-name="na" unicode="&#x29;" d="M102 180l0 344 62 0 80-117 64-102 2 0 0 219 68 0 0-344-62 0-86 129-59 88-2 0 0-217-68 0z m301-21l127 383 51 0-127-383-51 0z m185 21l121 344 70 0 119-344-74 0-21 70-119 0-23-70-72 0z m113 127l84 0-14 45-27 90-2 0-27-88z" horiz-adv-x="1000" />
<glyph glyph-name="celcius" unicode="&#xe9c4;" d="M283 424q-13 28 0 58t41 40q29 12 59 0t42-41q6-12 6-27t-6-29q-12-27-42-39t-60 0-41 39z m37 29q0-14 10-23t24-10 24 10 10 23-10 23-24 10-24-10-10-23z m166-170l0 129q0 51 40 81t91 30q69 0 105-33l-33-53q-27 23-70 23-26 0-45-15t-19-47l0-100q0-32 19-47t45-15q39 0 72 23l31-53q-43-35-103-35-53 0-93 30t-40 81z" horiz-adv-x="1000" />
<glyph glyph-name="smashmag" unicode="&#x2a;" d="M0 612q0 25 16 46t41 27l197 47q-63-72-63-168 0-185 253-283 28-11 54-25t55-34 46-47 18-56q0-43-35-67t-80-24q-58 0-121 23t-105 61l-79-179q56-31 144-61-10-2-32-9t-39-10-32-4q-25 0-46 16t-27 41l-164 687q-2 12-2 18z m419-46q0 38 35 59t76 21q49 0 110-18t88-47l61 170q-90 48-186 63 2 0 45 12t72 18 43 6q25 0 46-16t27-41l164-687q2-12 2-18 0-25-16-46t-41-27l-145-34q47 70 47 152 0 111-71 183t-185 110q-171 58-171 140z" horiz-adv-x="1000" />
<glyph glyph-name="gplus" unicode="&#xe8fd;" d="M0 32q0 87 89 155t215 68l54 0q-42 40-42 86 0 29 16 58-10-1-29-1-104 0-170 65t-66 160q0 91 82 159t187 68l310 0-69-50-98 0q47-18 74-68t27-111q0-93-88-162-37-29-48-46t-11-42q0-19 27-48t54-49q61-43 85-88t24-113q0-90-82-157t-222-67q-133 0-225 50t-92 132z m112 33q0-69 59-118t146-49q119 0 173 44t54 117q0 19-4 32-3 11-7 21t-12 19-14 16-20 17-21 15-25 18-26 18q-39 12-77 12-90 1-158-47t-68-114z m66 559q11-79 61-136t110-58q59-2 94 52t25 133-60 134-110 57-95-51-25-131z m555-24l0 50 200 0 0 200 50 0 0-200 201 0 0-50-201 0 0-201-50 0 0 201-200 0z" horiz-adv-x="1184" />
<glyph glyph-name="plus-5" unicode="&#xebf2;" d="M0 291l0 119q0 20 14 35t35 14l281 0 0 281q0 20 14 35t35 15l119 0q20 0 35-15t14-35l0-281 281 0q20 0 35-14t15-35l0-119q0-20-15-35t-35-14l-281 0 0-282q0-20-14-35t-35-14l-119 0q-20 0-35 14t-14 35l0 282-281 0q-20 0-35 14t-14 35z" horiz-adv-x="878.906" />
<glyph glyph-name="fahrenheit" unicode="&#xe9c5;" d="M276 461q2 19 15 36t32 23q30 12 60 0t41-39q12-28 0-57t-41-41q-14-6-30-6t-30 6q-28 12-41 40-7 19-5 38z m42-10q0-14 10-23t24-10 24 10 10 23-10 23-24 10-24-10-10-23z m168-277l0 346 238 0 0-62-170 0 0-80 144 0 0-62-144 0 0-141-68 0z" horiz-adv-x="1000" />
<glyph glyph-name="plus-4" unicode="&#xe900;" d="M408 443l229 0 0-173-229 0 0-231-179 0 0 231-229 0 0 173 229 0 0 219 179 0 0-219z" horiz-adv-x="636" />
<glyph glyph-name="plus-1" unicode="&#xe810;" d="M786 439l0-107q0-22-16-38t-38-16l-232 0 0-232q0-22-16-38t-38-16l-107 0q-22 0-38 16t-16 38l0 232-232 0q-22 0-38 16t-16 38l0 107q0 22 16 38t38 16l232 0 0 232q0 22 16 38t38 16l107 0q22 0 38-16t16-38l0-232 232 0q22 0 38-16t16-38z" horiz-adv-x="785.714" />
<glyph glyph-name="plus-2" unicode="&#xe858;" d="M911 462l0-223-335 0 0-335-223 0 0 335-335 0 0 223 335 0 0 335 223 0 0-335 335 0z" horiz-adv-x="928" />
<glyph glyph-name="plus" unicode="&#x2b;" d="M550 400q30 0 30-50t-30-50l-210 0 0-210q0-30-50-30t-50 30l0 210-210 0q-30 0-30 50t30 50l210 0 0 210q0 30 50 30t50-30l0-210 210 0z" horiz-adv-x="580" />
<glyph glyph-name="wikipedia" unicode="&#x2c;" d="M0 677l0 21 2 2 249 0 2-2 0-20q0-8-10-8l-26-1q-33-1-33-20 0-13 7-28 50-122 222-484l6-1 111 221q-13 30-22 49l-76 150-20 40q-26 51-34 61t-33 14q-14 2-14 7l0 21 3 2 197 0 5-1 0-21q0-8-10-8l-15-2q-13-2-19-5t-6-12 4-18 15-31l73-150 81 162q16 32 5 43-6 8-37 11l-9 1q-4 0-7 3-3 1-3 6l0 19 3 2q57 1 186 0l2-2 0-20q0-8-9-8-22-1-31-5t-17-16q-23-34-30-48l-105-196-3-7 128-262 8-3 202 481q12 28-3 41-13 12-39 13l-19 1q-3 0-6 3-4 2-4 6l0 20 3 2 229 0 2-2 0-20q0-7-9-9-46-2-66-19-20-16-34-49l-250-567q-10-23-23-31t-24 1-23 31q-38 75-122 263-105-216-131-264-41-71-71-1-32 75-130 285t-130 287q-16 42-28 52-11 10-52 13-14 2-14 7z" horiz-adv-x="1106" />
<glyph glyph-name="lanyrd" unicode="&#xe8fe;" d="M0 739q-1 11 6 21t14 17 24 16 27 13 33 14 35 15q54 22 97 16t54-35q25-67 103-320t116-362q268 88 326 105 16 6 38 4t33-23q23-47 33-99t1-75q-19-15-60-32t-76-29-90-29-74-23q-10-3-38-13t-53-19-58-19-61-18-54-12-45-4-26 9q-18 18-32 52t-29 87-19 66q-42 125-113 339t-104 313q-6 13-7 24z" horiz-adv-x="940" />
<glyph glyph-name="minus-1" unicode="&#xe80e;" d="M786 439l0-107q0-22-16-38t-38-16l-679 0q-22 0-38 16t-16 38l0 107q0 22 16 38t38 16l679 0q22 0 38-16t16-38z" horiz-adv-x="785.714" />
<glyph glyph-name="minus" unicode="&#x2d;" d="M550 400q30 0 30-50t-30-50l-520 0q-30 0-30 50t30 50l520 0z" horiz-adv-x="580" />
<glyph glyph-name="minus-2" unicode="&#xe85a;" d="M18 239l0 223 893 0 0-223-893 0z" horiz-adv-x="928" />
<glyph glyph-name="calendar-4" unicode="&#x2e;" d="M0-102l0 775 92 0q0 29 1 39t4 32 12 30 25 17 41 8 41-8 24-16 12-31 4-32l0-39 55 0 0 39t4 32 12 31 24 16 41 8q18 0 31-4t22-9 15-17 9-19 4-25 2-25l0-28 54 0 0 28t2 25 4 25 9 19 15 17 22 9 31 4q24 0 41-8t24-16 12-31 4-32l0-39 92 0 0-775-776 0z m65 177l0-112 139 0 0 112-139 0z m0 22l139 0 0 119-139 0 0-119z m0 141l139 0 0 130-139 0 0-130z m0 151l139 0 0 112-139 0 0-112z m71 203q0-33 37-33t37 33l0 130q0 33-37 33t-37-33l0-130z m89-517l0-112 152 0 0 112-152 0z m0 22l152 0 0 119-152 0 0-119z m0 141l152 0 0 130-152 0 0-130z m0 151l152 0 0 112-152 0 0-112z m126 203q0-33 37-33 38 0 38 33l0 130q0 33-38 33-37 0-37-33l0-130z m47-517l0-112 152 0 0 112-152 0z m0 22l152 0 0 119-152 0 0-119z m0 141l152 0 0 130-152 0 0-130z m0 151l152 0 0 112-152 0 0-112z m168 203q0-33 38-33 37 0 37 33l0 130q0 33-37 33-38 0-38-33l0-130z m5-517l0-112 140 0 0 112-140 0z m0 22l140 0 0 119-140 0 0-119z m0 141l140 0 0 130-140 0 0-130z m0 151l140 0 0 112-140 0 0-112z" horiz-adv-x="776" />
<glyph glyph-name="stumbleupon" unicode="&#x2f;" d="M0 143l0 181 224 0 0-179q0-28 20-49t49-21 50 20 21 49l0 423q0 117 87 200t206 83 206-83 87-201l0-92-134-40-89 42 0 80q0 29-20 49t-49 20-50-20-21-49l0-417q0-120-86-205t-206-85q-121 0-207 86t-86 208z m724-3l0 183 89-42 134 40 0-184q0-29 20-50t49-21 49 21 20 50l0 187 224 0 0-181q0-121-86-207t-207-86-207 85-86 205z" horiz-adv-x="1309" />
<glyph glyph-name="clouds-flash-alt" unicode="&#xe9c6;" d="M0 336q0 90 64 154t154 64q18 0 31-2 1 4 4 4-4 19-4 29 0 72 51 123t123 51l14 0q72 90 187 90t187-90l14 0q72 0 123-51t51-123q0-66-47-117 47-59 47-133 0-90-64-154t-154-64q-40 0-78 16-40-36-92-57l-35 35 12 23q63 26 103 74 41-29 90-29 64 0 110 46t46 110q0 52-33 96-23 29-56 45t-67 16l-25-2q-18-3-33-10-33 62-92 100-58 37-131 37-103 0-178-76-24-24-41-55-1-3-4-6-27 12-59 12-64 0-110-46t-46-110 46-110 110-46q49 0 90 29 21-25 51-45l-57-37-6 4q-37-14-78-14-90 0-154 64t-64 154z m318 285q82 59 182 59 73 0 141-33 66-33 109-94 14 2 31 2 70 0 129-41 27 32 27 72 0 47-32 79t-79 32q-22 0-43-8-21 45-64 71t-94 26-94-26-64-71q-20 8-43 8-37 0-65-21t-40-55z m57-771l62 187-62 62 187 125-62-125 62-62z" horiz-adv-x="1000" />
<glyph glyph-name="fivehundredpx" unicode="&#x30;" d="M0 236l119 0q5-40 30-64t65-24q48 0 77 33t29 82q0 48-28 79t-75 31q-38 0-65-25t-51-25q-53 0-80 2 9 52 29 161t29 165l330 0 0-98-243 0q-14-71-24-134l3 0q17 21 51 32t66 11q113 0 160-103 24 60 72 94t111 34q49 0 91-20t66-42 63-66q3-3 5-5t4-5l5-5q35 40 50 56t46 41 62 35 70 10q90 0 145-61t55-152q0-93-55-156t-147-63q-116 0-226 131-7-7-39-39t-43-40-37-26-52-23-58-6q-63 0-111 33t-74 92q-62-128-203-128-95 0-157 48t-62 139z m515 30q0-42 26-68t68-26q75 0 155 95-34 35-48 49t-48 33-64 20q-39 0-64-31t-25-71z m389 0q27-29 46-46t49-33 62-16q43 0 68 28t25 71q0 42-26 70t-68 28q-25 0-49-12t-37-22-38-36-32-33z" horiz-adv-x="1262" />
<glyph glyph-name="sun-inv-1" unicode="&#xe9c7;" d="M94 350q0 14 9 22t22 9l62 0q14 0 22-9t9-22-9-22-22-9l-62 0q-14 0-22 9t-9 22z m119-287q-21 21 0 45l45 43q21 21 43 0t0-43l-43-45q-23-21-45 0z m0 529q-21 23 0 45t45 0l43-45q21-21 0-43t-43 0z m68-242q0 90 64 154t154 64 154-64 64-154-64-154-154-64-154 64-64 154z m187-375l0 62q0 14 9 22t22 9 22-9 9-22l0-62q0-14-9-22t-22-9-22 9-9 22z m0 687l0 62q0 14 9 22t22 9 22-9 9-22l0-62q0-14-9-22t-22-9-22 9-9 22z m229-511q22 21 44 0l45-43q21-23 0-45t-45 0l-43 45q-24 21-1 43z m0 398q-23 21 1 43l43 45q23 21 45 0t0-45l-45-43q-21-21-44 0z m83-199q0 14 9 22t22 9l62 0q14 0 22-9t9-22-9-22-22-9l-62 0q-14 0-22 9t-9 22z" horiz-adv-x="1000" />
<glyph glyph-name="pinterest" unicode="&#x31;" d="M0 491q0 63 27 125t76 115 130 86 179 33q159 0 261-98t102-231q0-171-87-283t-224-112q-45 0-85 21t-56 51l-40-158q-5-19-13-39t-18-38-19-34-19-30-17-24-13-17l-6-8q-3-4-8-3t-6 6q0 1-2 14t-3 28-3 38-1 45 3 48 8 48q11 47 74 313-8 16-13 39t-5 37l-1 15q0 64 33 107t79 43q37 0 58-25t21-62q0-23-9-57t-23-77-20-71q-10-45 18-78t74-33q79 0 131 90t52 217q0 97-63 159t-176 62q-126 0-205-81t-79-194q0-67 38-113 13-15 8-32-2-5-6-23t-6-23q-2-11-10-15t-18 1q-59 24-89 83t-30 137z" horiz-adv-x="774" />
<glyph glyph-name="bitcoin" unicode="&#x32;" d="M16 471q33 132 126 228t221 133 260 4 228-126 133-221 4-260-126-228-221-133-260-4-228 126-133 221-4 260z m228-271l72-18q7-1 20-5t19-5l-23-91 55-14 22 90q6-2 21-6t23-6l-22-90 55-13 22 91q48-8 86-8t66 21 43 61q32 90-51 133 60 13 70 80 13 86-110 126l23 91-55 13-22-88q-8 2-23 6t-21 6l22 88-55 14-22-90q-15 2-35 8l-76 19-14-59 39-9q28-7 26-32l-26-103q2 0 6-2-1 1-3 1t-3 1l-36-144q-5-18-25-13l-40 10z m183 23l30 121q1 0 20-4t28-7 28-9 29-13 21-17 15-22-1-28q-3-11-9-19t-15-12-19-7-23-3-24 2-24 4-22 5-20 5-15 4z m44 176l27 110q3-1 13-3t17-4 18-5 19-7 18-9 15-11 12-14 6-17-2-20q-3-13-11-22t-19-12-23-5-27 1-24 4-23 6-17 4z" horiz-adv-x="1001" />
<glyph glyph-name="moon-inv-1" unicode="&#xe9c8;" d="M287 357q0 91 64 155 36 33 82 51-21-60-8-121 14-63 59-107t107-59q61-14 121 8-18-46-51-82-64-64-155-64t-155 64-64 155z" horiz-adv-x="1000" />
<glyph glyph-name="w3c" unicode="&#x33;" d="M0 647l77 0 107-363 72 244-35 119 77 0 107-363 107 363 290 0 0-36-109-188q58-20 86-67 30-50 30-114 0-82-43-137t-112-55q-51 0-90 33-39 34-56 89l60 25q13-34 35-54 20-19 51-19t52 34q22 34 22 84 0 52-23 83-27 34-83 34l-30 0 0 36 103 178-124 0-7-12-152-511-7 0-110 370-111-370-7 0z m818-417l18-50q15-33 33-58 42-58 94-67 45-9 88 18 19 12 35 31 20 20 28 36 4 7 11 20l-11 59q-8-16-16-28t-12-17l-4-4q-34-37-61-49-33-15-68-11-27 2-60 24-36 31-43 43-13 18-32 53z m27 195q0 84 33 146 16 30 38 48t43 20q35 4 70-26 18-15 37-50l44 87 12-76-44-85q-8 16-19 30t-18 20l-8 6q-31 22-64 15-24-5-48-30t-35-59q-19-55-19-106-1-40 5-63-12 22-19 53t-7 51z" horiz-adv-x="1125" />
<glyph glyph-name="cloud-sun-inv" unicode="&#xe9c9;" d="M0 131q0 88 61 151t149 67q-23 45-23 94 0 90 64 154t154 64q89 0 153-62 63-61 65-152 76-33 125-100 14 2 31 2 90 0 154-64t64-154-64-154-154-64q-41 0-78 14-88-76-203-76t-203 76q-37-14-78-14-90 0-154 64t-64 154z m0 312q0 14 9 22t22 9l62 0q14 0 22-9t9-22-9-22-22-9l-62 0q-14 0-22 9t-9 22z m119 242q-21 23 0 45t45 0l43-45q21-21 0-43t-43 0z m131-242q0-38 20-72 92 103 230 103 27 0 61-6-10 57-53 94t-102 37q-64 0-110-46t-46-110z m125 312l0 62q0 14 9 22t22 9 22-9 9-22l0-62q0-14-9-22t-22-9-22 9-9 22z m230-113q-21 21 0 43l43 45q23 21 45 0t0-45l-45-43q-21-21-43 0z m82-199q0 14 9 22t22 9l62 0q14 0 22-9t9-22-9-22-22-9l-62 0q-14 0-22 9t-9 22z" horiz-adv-x="1000" />
<glyph glyph-name="cloud-moon-inv" unicode="&#xe9ca;" d="M0 131q0 90 64 154t154 64q18 0 31-2 78 107 211 125-18 61-1 127t63 113q39 39 94 59 19 8 33-7t8-32q-20-52-8-104t50-91q39-39 91-51 53-12 105 8 18 6 32-8 15-14 7-33-20-55-59-94-8-8-27-21 66-21 108-78t42-129q0-90-64-154t-154-64q-41 0-78 14-88-76-203-76t-203 76q-37-14-78-14-90 0-154 64t-64 154z m517 445q-12-55 8-103 134-9 219-117 65 16 103 64-111-6-191 73-80 80-72 190-7-5-16-14-39-39-51-94z" horiz-adv-x="1000" />
<glyph glyph-name="foursquare" unicode="&#x34;" d="M0 410q0 105 77 180t185 75q85 0 153-48t95-124l66 64 158-152 437 446 0-405-267-206 34-36-363-353-316 307q-107 2-182 76t-75 177z m37 0q0-90 65-153t157-63q33 0 65 9l220-195 585 460 1 302-578-596-90 146q20 43 20 90 0 89-66 153t-158 64-157-64-65-153z m48-2q0 70 50 120t120 50 120-49 50-120q0-70-50-120t-120-50-120 50-50 120z" horiz-adv-x="1169" />
<glyph glyph-name="cloud-inv" unicode="&#xe9cb;" d="M0 318q0 90 64 154t154 64q18 0 31-2 43 61 109 94 67 33 141 33t141-33q66-33 109-94 14 2 31 2 90 0 154-64t64-154-64-154-154-64q-41 0-78 14-88-76-203-76t-203 76q-37-14-78-14-90 0-154 64t-64 154z" horiz-adv-x="1000" />
<glyph glyph-name="html5" unicode="&#x35;" d="M0 649l699 0-66-710-284-81-284 81z m65 60l0 133 45 0 0-44 40 0 0 44 44 0 0-133-44 0 0 44-40 0 0-44-45 0z m65-205l24-266 1 2 300 0-10-113-96-27-97 28-6 68-88 0 12-136 179-51 179 51 25 267-319 0-8 89 335 0 8 88-439 0z m84 293l0 45 122 0 0-45-39 0 0-88-44 0 0 88-39 0z m141-88l0 133 47 0 27-46 28 46 47 0 0-133-43 0 0 68-32-50 0 1-30 47 0-66-44 0z m172 0l0 133 44 0 0-88 62 0 0-45-106 0z" horiz-adv-x="699" />
<glyph glyph-name="cloud-flash-inv" unicode="&#xe9cc;" d="M0 506q0 90 64 154t154 64q18 0 31-2 43 61 109 94 67 33 141 33t141-33q66-33 109-94 14 2 31 2 90 0 154-64t64-154-64-154-154-64q-41 0-78 14-76-66-182-74l-21-64 62-62-187-187 62 187-62 62 68 68q-84 16-146 70-37-14-78-14-90 0-154 64t-64 154z" horiz-adv-x="1000" />
<glyph glyph-name="ie" unicode="&#x36;" d="M1-2q-3 36 7 60 39 140 92 239 114 216 313 352l0 14q-59-25-119-66t-102-81-76-78-51-60l-17-23q-2 59 16 115t45 94 55 67 47 43l19 13q4 2 11 6t28 14 44 19 55 17 64 12 70 2 74-12q64 47 129 73t98 29l33 3q50 5 78-17t31-55-1-68-12-60l-9-24-5 5q21 57 21 94t-18 57-37 29-37 10l-16 2q-4 0-12-1t-32-5-49-13-61-25-69-41q69-11 123-42t86-71 55-85 31-89 13-78 4-56l-1-22-557 0q-3-42 11-73t34-46 41-23 36-9l15-1q4 0 12 1t27 6 35 14 31 29 22 47l292 0q-16-59-47-107t-68-78-78-51-79-32-68-16-49-7l-19 0q-78 0-107 6-60-47-127-74t-104-30l-36-3q-46 0-78 24t-42 56-13 68z m76 6q-1-24 3-43t8-29l4-9q4-3 11-8t34-14 57-8 82 17 108 50q-8 2-22 6t-51 18-69 32-67 48-54 65q-22-34-33-67t-12-57z m283 424l265 0q1 36-12 63t-32 39-39 19-33 8l-14 1q-6 0-15-1t-33-8-42-19-33-39-14-63z" horiz-adv-x="943" />
<glyph glyph-name="drizzle-inv" unicode="&#xe9cd;" d="M0 443q0 90 64 154t154 64q18 0 31-2 43 61 109 94 67 33 141 33t141-33q66-33 109-94 14 2 31 2 90 0 154-64t64-154-64-154-154-64q-41 0-78 14-88-76-203-76t-203 76q-37-14-78-14-90 0-154 64t-64 154z m437-468q0 35 62 125l16-23q18-27 31-55 16-32 16-47 0-25-19-44t-44-19-44 19-19 44z" horiz-adv-x="1000" />
<glyph glyph-name="call" unicode="&#x37;" d="M2 593q2 17 15 32l120 120q14 12 21-4l97-182q8-16-5-31l-44-44q-12-12-14-31 0-30 31-77t61-80l31-32q14-14 36-35t73-54 80-34q19 0 32 13l52 52q14 14 30 4l175-103q7-4 8-11t-4-12l-120-120q-15-13-32-15-49-7-111 14t-114 55-98 69-72 60l-26 25q-10 10-27 28t-58 69-71 101-52 112-15 112z" horiz-adv-x="800" />
<glyph glyph-name="grooveshark" unicode="&#x38;" d="M0 350q0 136 67 251t182 182 251 67 251-67 182-182 67-251-67-251-182-182-251-67-251 67-182 182-67 251z m129 0q0-65 36-77 5-2 17-4 42-1 85 40 41 36 58 90 25 77 10 200-2 12-2 17-3 6 0 9 1 3 13-1 38-10 78-29 46-21 102-70 45-39 87-89 33-39 80-104 41-57 88-77 29-10 48-7t29 20 15 37 5 45q0 48-12 96-3 12-8 28-14 43-41 84-52 79-136 124t-178 45q-66 0-125-22-80-28-141-89t-89-142q-1-5-4-15t-5-14q-12-50-11-96z" horiz-adv-x="1000" />
<glyph glyph-name="rain-inv" unicode="&#xe9ce;" d="M0 506q0 90 64 154t154 64q18 0 31-2 43 61 109 94 67 33 141 33t141-33q66-33 109-94 14 2 31 2 90 0 154-64t64-154-64-154-154-64q-41 0-78 14-88-76-203-76t-203 76q-37-14-78-14-90 0-154 64t-64 154z m187-406q0 35 62 125l16-23q18-27 31-55 16-32 16-47 0-25-19-44t-44-19-44 19-19 44z m252-187q0 35 62 125l16-23q18-27 31-55 16-32 16-47 0-25-19-44t-44-19-44 19-19 44z m248 62q0 35 62 125l16-23q18-27 31-55 16-32 16-47 0-25-19-44t-44-19-44 19-19 44z" horiz-adv-x="1000" />
<glyph glyph-name="ninetyninedesigns" unicode="&#x39;" d="M0 710q-1 5 3 10t9 6q11 2 31 7t28 7q0 17 1 50t1 49q2 12 13 12 14 0 14-14-2-60-2-91 11 2 35 7t35 8q18 4 55 10t56 10q402 69 794 72 6 0 10-5t3-11q0-11-2-33t-2-33q42-3 128-11 5 0 9-5t3-10q-23-137-68-412t-68-413q50-8 76-12 8-1 11-8t-1-13-10-6l-3 0q-13 2-39 7t-39 7q-1-12-5-31-2-9-10-11-1-1-4-1l-4 0q-297 75-600 117-100 2-149 2-55 0-165-2l0-1q1-1 1-2 1-6-4-11t-11-5q-11 0-12 11 0 5-2 16t-3 17l-13 0q-8 0-11 7t1 14 12 7l8 0-6 54q-6 40-25 195t-36 252-43 191z m30-8q21-78 43-201-3 70-3 209-16-2-40-8z m67-91q1-193 21-424 3-40 11-109 1-9 3-19t4-22 3-19q67-3 192-13t182-13q354-20 483-35 11 160 33 455t30 411q-468-4-960-107-1-53 0-105z m92-163q0-68 43-111t109-43q69 0 109 43l2 0q-13-70-65-111-41-33-101-38-40-4-52-2l0-75q35 0 57 2 107 8 171 68 87 82 87 233 0 94-47 154t-132 60q-78 0-129-53t-51-126z m94 6q0 45 23 74t59 29l1 0q43 0 65-36t21-91q0-16-5-26-26-42-81-42-38 0-60 26t-22 66z m89-477l96-10 373-40q140-30 209-48l3 18q-55 9-165 25-249 35-516 55z m192 471q0-68 43-111t108-43q69 0 110 43l1 0q-13-70-64-111-42-33-102-38-40-4-52-2l0-75q35 0 57 2 107 8 171 68 87 80 87 233 0 94-47 154t-131 60q-78 0-130-53t-52-126z m94 6q0 45 23 74t58 29l1 0q43 0 65-36t21-91q0-16-5-26-26-42-81-42-38 0-60 26t-22 66z m357-524q28-4 43-6 20 120 65 392t69 417q-13 1-36 3t-42 4-36 3q-6-85-27-367t-31-436q0-5-4-9-1 0-1-1z" horiz-adv-x="1220" />
<glyph glyph-name="windy-inv" unicode="&#xe9e6;" d="M0 131q0 14 9 22t22 9l250 0q14 0 22-9t9-22-9-22-22-9l-250 0q-14 0-22 9t-9 22z m0 125q0 14 9 22t22 9l125 0q14 0 22-9t9-22-9-22-22-9l-125 0q-14 0-22 9t-9 22z m62 125q0 14 9 22t22 9l125 0q14 0 22-9t9-22-9-22-22-9l-125 0q-14 0-22 9t-9 22z m209-51q0 78 54 135t132 61q74 76 179 76t179-76q78-3 132-61 54-57 54-135 0-80-57-137t-139-57q-18 0-33 2-62-41-136-41t-136 41q-16-2-35-2-80 0-137 57t-57 137z" horiz-adv-x="1000" />
<glyph glyph-name="forrst" unicode="&#xe97c;" d="M0-150l417 1000 417-1000-369 0 0 135 170 85-13 55-157-79 0 67 98 52-14 57-84-45 0 87-92 0 0-157-86 59-16-64 102-70 0-182-373 0z" horiz-adv-x="834" />
<glyph glyph-name="colon" unicode="&#x3a;" d="M0 526c0 54 43 98 98 98 54 0 98-44 98-98 0-55-44-98-98-98-55 0-98 43-98 98z m0-351c0 54 43 98 98 98 54 0 98-44 98-98 0-55-44-98-98-98-55 0-98 43-98 98z" horiz-adv-x="195" />
<glyph glyph-name="digg" unicode="&#xe97b;" d="M0 152l0 372q0 13 13 13l176 0 0 129q0 14 13 14l98 0 0-514q0-14-12-14l-288 0z m109 83l67 0q13 0 13 14l0 206-67 0q-13 0-13-14l0-206z m225-83l0 372q0 13 13 13l98 0 0-371q0-14-12-14l-99 0z m0 445l0 69q0 14 12 14l99 0 0-69q0-14-12-14l-99 0z m149-445l0 372q0 13 13 13l288 0 0-504q0-13-13-13l-288 0 1 69q0 14 12 14l176 0 0 49-189 0z m110 83l67 0q12 0 12 14l0 206-67 0q-12 0-12-14l0-206z m229-146q0 14 13 14l176 0 0 49-189 0 0 372q0 13 13 13l287 0 0-504q0-13-12-13l-288 0 0 69z m109 146l67 0q13 0 13 14l0 206-67 0q-13 0-13-14l0-206z" horiz-adv-x="1122" />
<glyph glyph-name="semicolon" unicode="&#x3b;" d="M0 574c0 54 43 98 98 98 54 0 98-44 98-98 0-55-44-98-98-98-55 0-98 43-98 98z m0-534c49 24 75 54 83 101-40 9-65 40-65 79 0 49 36 85 85 85 59 0 100-48 100-113 0-83-71-169-203-164l0 11z" horiz-adv-x="203" />
<glyph glyph-name="spotify" unicode="&#xe97a;" d="M0 350q0 136 67 251t182 182 251 67 251-67 182-182 67-251q0-101-38-192t-107-160q-60 73-146 114t-183 41q-107 0-199-50t-151-135q-83 71-130 170t-47 211z m164 144q0-17 12-30t30-13q6 0 9 1 144 58 298 58t298-58q1 0 4-1t5-1q17 0 30 13t13 30q0 25-23 37-159 63-326 63-170 0-329-64-20-13-20-36z m46-149l6-16q8-13 23-13 3 0 9 2 127 55 265 55 139 0 267-56 4-2 7-2 15 0 23 13l5 17q0 13-10 21-138 62-292 62-153 0-293-62-10-10-10-21z m48-144q10-25 31-16 108 51 224 51 112 0 219-48 24-13 35 12 5 13 0 23t-14 15q-106 53-240 53-128 0-244-55-19-10-11-35z m61-317q37 48 92 76t117 28q114 0 193-86-104-52-220-52-94 0-181 34z" horiz-adv-x="1000" />
<glyph glyph-name="info-3" unicode="&#xebcd;" d="M469 78l0 349-121 0 0-349 121 0z m-61 410c40 0 71 31 71 73 0 39-31 70-71 70s-71-31-71-70c0-40 31-73 71-73z m-1 269c224 0 406-181 406-406 0-224-183-406-406-406-225 0-406 183-406 406 0 225 181 406 406 406z" horiz-adv-x="813" />
<glyph glyph-name="reddit" unicode="&#x3e;" d="M0 353q0 62 50 106t113 44q62 0 105-36l5 0q134 82 335 82l5 4 70 267 242-36q0-1 2-1 1 0 0 1 2 1 12 16t15 19q34 32 82 32 49 0 83-33t34-82-34-84-83-35q-57 0-87 39t-30 97q-2-1-98 13t-110 17l-3 0q-2-2-17-54t-30-109-18-64l0-3 5-4q72 0 148-21t131-58l3-2q1 1 2 1t2 1q25 18 36 25t30 13 43 6q68 0 116-48t48-117q0-47-27-86t-70-60q0-195-260-303-41-18-56-23-32-10-91-19t-93-9q-120 0-231 35-2 2-72 38-95 51-153 116t-58 156l-5 0q-33 17-59 50l-9 12q-15 27-19 46t-4 51z m34-12q0-66 57-112 5 59 48 116t101 101q-37 26-82 26-49 0-87-41t-38-91z m102-146q0-54 31-104t80-86 103-60 105-34q75-14 146-14 123 0 233 40t185 123l-3 0q30 38 43 69t13 73q0 54-27 103t-70 84-92 61-100 39q-85 23-181 23-74 0-152-18t-150-54-119-100-46-144z m186 73q0 37 23 60t60 23 62-23 25-60q0-36-26-60t-62-24-59 24-23 60z m36-164l44 0q25-45 80-69t112-24q58 0 110 24t84 69l41 0q-25-62-93-96t-142-34q-72 0-142 35t-94 96z m336 164q0 38 23 60t61 22q34 0 58-24t24-58-24-59-58-25q-37 0-61 24t-24 61z m255 468q0-35 25-60t60-25q36 0 59 25t23 61q0 34-24 58t-58 24-60-25-26-58z m14-281q55-36 95-93t56-120q59 43 59 96 0 58-36 100t-93 42q-45 0-82-26z" horiz-adv-x="1205" />
<glyph glyph-name="question" unicode="&#xebcc;" d="M405 618c-105 0-160-58-160-163l130 0c0 39 9 58 29 58 19 0 28-19 28-58 0-49-24-66-70-66-4 0-11 0-20 1l0-123 130 0 0 51c64 16 96 63 96 136 0 96-69 163-163 163z m1-405c-41 0-76-35-76-78 0-41 35-78 76-78s76 36 76 78-35 78-76 78z m0 544c224 0 406-181 406-406 0-224-183-406-406-406-225 0-406 183-406 406 0 225 181 406 406 406z" horiz-adv-x="813" />
<glyph glyph-name="guest" unicode="&#x3f;" d="M0 108q0 22 12 64 23 87 87 158t148 103q-79 63-79 161 0 86 63 146t149 60 149-60 63-146q0-97-77-160 106-38 177-127t71-198q0-92-73-106-3-10-13-26-6-16-24-29t-49-21-50-12-57-9-39-5q-2 0-7-1t-7-1l-120 0q-51 0-129 17t-89 45q-17 17-25 42-25 5-42 21-38 15-38 84z" horiz-adv-x="760" />
<glyph glyph-name="gowalla" unicode="&#xe979;" d="M0 338l0 103q0 87 86 200t171 160q78 44 187 44 44 0 89-10t86-31 67-58 26-85q0-13-2-25t-7-24-9-21-14-21-14-19-18-20-17-17-19-18-18-16l168 0q2-72 2-108 0-253-42-326-35-61-95-108t-128-70q-39-15-56-15l-84 0q-3 0-48 17-120 53-120 174 0 4 1 11t1 10q-134 69-180 215-13 42-13 56z m146 130q0-40 10-81t29-79 53-62 77-24q12 0 40 15t50 15q14 0 51-11t37-20q0-21-26-21-130 0-130-76 0-58 42-88t103-30q47 0 92 17t73 50q42 50 42 164 0 19-1 56t-1 55q0 48 5 80l-193 0q-1-8-1-23 0-11 1-34t1-35q0-35-8-56-5-1-17-1-48 0-80 33t-44 75-12 89q0 45 12 91t43 84 78 38q10 0 21-3-4-22-4-34 0-35 19-58t53-23 57 23 23 58q0 41-31 70t-70 40-79 11q-135 0-223-85t-88-219z" horiz-adv-x="764" />
<glyph glyph-name="at-1" unicode="&#xe929;" d="M770 548c16-41 25-88 25-139 0-68-18-133-46-181-39-61-94-93-163-93-28 0-53 8-70 21-13 9-24 21-30 36-26-34-69-55-114-55-51 0-95 19-123 58-28 35-41 84-41 141s16 110 49 148c34 41 83 64 141 64 35 0 68-15 90-38l8 26 85 0-18-259c-1-21 1-36 9-44 4-5 10-8 20-8 76 0 103 123 103 183 0 73-24 133-68 176-50 51-121 76-209 76-84 0-158-26-214-76-65-59-101-143-101-245 0-86 31-165 85-221 53-53 123-81 205-81 95 0 168 14 241 46l15 8 0-96-6-3c-69-34-150-50-251-50-108 0-200 33-269 96-81 74-124 184-124 309 0 119 40 220 116 294 38 36 83 65 133 84 53 21 109 31 169 31 114 0 215-38 284-106 30-29 54-64 69-103z m-384-318c30 0 54 14 69 40 14 25 18 61 18 85 0 31-6 56-16 74-14 20-34 29-60 29-29 0-50-13-64-39-13-21-19-53-19-83 0-33 8-106 73-106z" horiz-adv-x="795" />
<glyph glyph-name="at-3" unicode="&#xec48;" d="M0 340q0 197 130 333 137 144 350 144 175 0 288-99 121-104 121-277 0-135-77-233-76-98-174-98-50 0-78 31-27 31-27 65 0 1 0 4t0 5 0 5 0 6q-22-44-47-68-46-46-112-46t-111 52q-45 52-45 145 0 108 68 203 69 95 166 95 57 0 90-35 25-28 33-62l20 75 104 0-71-260q-3-12-7-28t-5-19q-3-14-3-27 0-18 11-34t35-16q47 0 96 67 48 68 48 179 0 164-131 237-80 45-183 45-188 0-301-125-102-112-102-270 0-176 121-278 107-91 259-91 105 0 196 42 50 22 103 63l13 10q4 3 10 6t13 3 15-4 13-16q6-16 3-28t-8-19l-6-7q-78-66-169-101-92-35-189-35-229 0-355 155-104 128-104 304z m340-42q0-43 19-71 18-27 52-27 59 0 97 97 37 98 37 153 0 32-17 54-18 21-47 21-58 0-99-78-41-77-41-150z" horiz-adv-x="888.672" />
<glyph glyph-name="at" unicode="&#x40;" d="M851 127l-163 0q-54 0-88 46-60-47-136-47-92 0-158 66t-66 158 66 158 158 66l224 0 0-334 90 0 1-1q20 54 20 113 0 139-99 237t-237 98-236-98-98-237 98-237 236-98q141 0 237 98l79-79q-131-131-316-131t-316 131-131 316 131 316 316 131 316-131 131-315q0-120-60-224z m-275 222l0 112-112 0q-45 0-78-33t-33-79 33-79 79-33 79 33 33 78z" horiz-adv-x="928" />
<glyph glyph-name="sunrise" unicode="&#xe9e3;" d="M213 498q-11 12-11 23t11 22 22 11 23-11l43-45q11-11 11-21t-11-21-21-11l-21 11z m68-305q0 14 9 22t22 9l375 0q14 0 22-9t9-22-9-22-22-9l-375 0q-14 0-22 9t-9 22z m4 94q12 81 72 134 61 54 142 54t142-54q61-53 72-134l-62 0q-9 55-53 90-43 35-100 35t-100-35q-43-35-53-90l-62 0z m59-219q0 14 9 22t22 9l250 0q14 0 22-9t9-22-9-22-22-9l-250 0q-14 0-22 9t-9 22z m125 500l0 62q0 14 9 22t22 9 22-9 9-22l0-62q0-14-9-22t-22-9-22 9-9 22z m230-113q-11 11-11 21t11 21l43 45q12 11 23 11t22-11 11-22-11-23l-45-43q-11-11-21-11z" horiz-adv-x="1000" />
<glyph glyph-name="appstore" unicode="&#x41;" d="M1 351q-1-18-1-36 0-68 20-144 26-97 83-184 89-136 172-137 30 0 78 21t95 21l4 0q46 0 91-20 47-22 76-22 49 1 91 41t85 104q31 48 65 121-50 19-85 57t-48 85q-10 35-9 70l0 24q4 48 34 92t79 71q-38 48-89 75t-103 27q-48 0-106-22t-86-22q-30 0-91 22t-102 22q-58 0-115-34t-96-93q-37-56-44-139z m415 258q-3 15-3 30 0 65 53 129 27 33 70 56t83 26q2-15 2-30 0-69-50-132-28-36-70-58-41-22-80-21l-4 0z" horiz-adv-x="860" />
<glyph glyph-name="sun-2" unicode="&#xe9e2;" d="M94 350q0 14 9 22t22 9l62 0q14 0 22-9t9-22-9-22-22-9l-62 0q-14 0-22 9t-9 22z m119-287q-11 11-11 22t11 23l45 43q11 12 22 12l21-11q11-11 11-22t-11-22l-43-45q-12-11-23-11t-22 11z m0 529q-11 12-11 23t11 22 22 11 23-11l43-45q11-11 11-21t-11-21-21-11l-21 11z m68-242q0 90 64 154t154 64 154-64 64-154-64-154-154-64-154 64-64 154z m62 0q0-64 46-110t110-46 109 45q47 47 47 111t-46 110-110 46-110-46-46-110z m125-375l0 62q0 14 9 22t22 9 22-9 9-22l0-62q0-14-9-22t-22-9-22 9-9 22z m0 687l0 62q0 14 9 22t22 9 22-9 9-22l0-62q0-14-9-22t-22-9-22 9-9 22z m230-554q-11 11-11 21t11 21 21 11l21-11 45-43q11-12 11-23t-11-22-22-11-23 11z m0 441q-11 11-11 21t11 21l43 45q12 11 23 11t22-11 11-22-11-23l-45-43q-11-11-21-11z m82-199q0 14 9 22t22 9l62 0q14 0 22-9t9-22-9-22-22-9l-62 0q-14 0-22 9t-9 22z" horiz-adv-x="1000" />
<glyph glyph-name="blogger-1" unicode="&#x42;" d="M0 165l0 369q0 130 93 223t223 93l221 0q65-8 139-57t105-115q1-2 5-10t5-10 4-10 4-13 4-16 4-22 4-29q9-70 26-85 14-13 71-15t65-8l14-11 8-17 3-14-2-256q-1-130-93-223t-222-93l-363 0q-130 0-223 93t-93 223z m259 5q0-25 18-43t43-18l356 0q25 0 43 18t18 43-18 43-43 18l-356 0q-25 0-43-18t-18-43z m0 362q0-25 18-43t43-18l175 0q25 0 43 18t18 43-18 43-43 18l-175 0q-25 0-43-18t-18-43z" horiz-adv-x="996" />
<glyph glyph-name="moon-2" unicode="&#xe9df;" d="M256 356q0 103 74 178 39 39 94 59 5 2 10 2 12 0 21-10t10-22q0-5-2-11-11-30-10-61 0-21 4-42 12-53 50-91t91-50q21-5 42-4 31 0 61 10 6 2 11 2 12 0 22-10t10-21q0-5-2-10-20-55-59-94-74-74-178-74t-177 73-73 177z m62 1q0-78 55-134 54-54 131-54 6 0 13 0 85 5 136 71-10 0-20 0-99 0-171 72t-72 171q0 10 0 20-10-6-18-14-55-55-55-132z" horiz-adv-x="1000" />
<glyph glyph-name="cc-1" unicode="&#x43;" d="M0 350q0 98 38 191 37 90 110 163 144 146 351 146 209 0 357-146 71-71 107-162 37-89 37-192 0-104-36-192-36-89-107-159-74-72-166-111-94-38-192-38-97 0-190 38-89 37-162 110t-110 162-37 190z m90 0q0-79 32-155 31-75 91-133 60-60 133-89 72-31 155-31 81 0 156 31 74 31 136 90 117 114 117 287 0 85-31 157-30 76-88 132-120 121-290 121-171 0-288-120-59-59-91-134-32-76-32-156z m125 0q0 71 42 113 41 42 105 42 92 0 133-72l-67-35q-11 24-27 31-15 9-29 9-67 0-67-88 0-39 17-64 18-24 50-24 44 0 62 42l62-31q-21-36-55-57-35-21-77-21-67 0-108 41t-41 114z m289 0q0 71 42 113t105 42q93 0 132-72l-66-35q-11 23-26 31-17 9-30 9-67 0-67-88 0-41 17-64 17-24 50-24 43 0 61 42l63-31q-22-37-56-57-35-21-75-21-69 0-109 41-41 41-41 114z" horiz-adv-x="1000" />
<glyph glyph-name="dribbble" unicode="&#x44;" d="M0 350q0 136 67 251t182 182 251 67 251-67 182-182 67-251-67-251-182-182-251-67-251 67-182 182-67 251z m83 0q0-156 105-275 48 94 152 179t203 107q-15 35-29 63-172-55-372-55-39 0-58 1 0-4-1-10t-1-10z m13 103q22-2 65-2 167 0 317 45-76 135-167 225-79-40-136-111t-80-157z m149-432q113-88 255-88 74 0 147 28-20 171-78 331-92-20-186-101t-139-170z m153 732q88-91 163-227 136 57 205 145-116 96-266 96-51 0-102-14z m199-298q15-32 34-81 74 7 161 7 62 0 123-3-8 136-98 242-65-97-220-165z m59-151q51-148 69-304 79 51 129 131t60 173q-73 5-133 5-55 0-125-5z" horiz-adv-x="1000" />
<glyph glyph-name="eclipse" unicode="&#xe9e7;" d="M123 320q0 14 9 22t22 9l62 0q14 0 22-9t9-22-9-22-22-9l-62 0q-14 0-22 9t-9 22z m119-287q-11 11-11 22t11 23l45 43q11 12 22 12l21-11q11-11 11-22t-11-22l-43-45q-12-11-23-11t-22 11z m0 529q-11 12-11 23t11 22 22 11 23-11l43-45q11-11 11-21t-11-21-21-11l-21 11z m68-242q0 90 64 154t154 64q29 0 62-10 34 10 62 10 90 0 154-64t64-154-64-154-154-64q-29 0-62 10-34-10-62-10-90 0-154 64t-64 154z m62 0q0-56 36-100 36-43 89-53-62 62-62 152t62 152q-53-10-89-53t-36-100z m125-375l0 62q0 14 9 22t22 9 22-9 9-22l0-62q0-14-9-22t-22-9-22 9-9 22z m0 687l0 62q0 14 9 22t22 9 22-9 9-22l0-62q0-14-9-22t-22-9-22 9-9 22z" horiz-adv-x="1000" />
<glyph glyph-name="mist" unicode="&#xe9dc;" d="M61 258q0 14 11 22t26 9l168 0q-10 31-14 62l-98 0q-14 0-22 9t-9 22 9 22 22 9l98 0q3 31 14 62l-174 0q-14 0-22 9t-9 22 9 22 22 9l203 0q39 56 101 91 61 34 134 34 108 0 186-72 79-73 91-178l160 0q14 0 22-9t9-22-9-22-22-9l-160 0q-3-31-14-62l43 0q16 0 26-9t11-22-11-22-26-9l-72 0q-39-56-101-91-61-34-134-34t-134 34q-62 35-101 91l-197 0q-16 0-26 9t-11 22z m254 94q4-33 18-62l394 0q14 29 18 62l-429 0z m0 62l429 0q-12 81-72 134-61 54-142 54-87 0-152-62l152 0q14 0 22-9t9-22-9-22-22-9l-197 0q-14-29-18-62z m62-187q65-62 152-62t152 62l-305 0z" horiz-adv-x="1000" />
<glyph glyph-name="evernote" unicode="&#x45;" d="M0 541q0 40 15 58 9 14 26 21 18 9 47 9l94 0q15 0 26 11t11 26q0 21-1 44l0 59q0 25 12 44 15 21 50 31 11 6 53 6l19 0q59-2 98-17 38-16 45-62 26 1 48 1 53 0 89-5 97-12 129-24 42-13 53-67 10-55 18-210 5-89 5-147 0-44-3-71-16-172-43-254-14-42-28-69t-28-43-37-23-43-9-59-2q-108 0-146 26t-38 107q0 45 10 72t33 38 47 13q15 1 40 1l28 0q4 0 6-2t1-5-3-8-3-11-2-13q0-9 2-19t1-12-7-3l-20 0t-10-1-10-2-9-3-8-4-6-6-4-9-1-12q0-14 4-23t8-14 18-7 22-2l33 0q57 0 73 14t16 64q0 76-19 103t-57 32q-88 9-119 20-53 20-53 119 0 2-3 2t-3-2q0-67-18-120l-8-24q-11-25-37-26l-6 0q-24 0-54 8-127 16-198 47-24 11-37 40-17 35-36 129t-24 134q-4 33-4 51z m6 119l0 2 183 180q0 1 1 1l-3-6q-11-20-11-48 0-22 1-103 0-10-10-10l-93 0q-34 0-59-11-5-3-9-5z m568-290q21 3 46 3 45-1 81-18 0 85-61 87l-3 0q-30 0-44-20-15-21-19-52z" horiz-adv-x="837" />
<glyph glyph-name="wind" unicode="&#xe9db;" d="M123 194q0 14 12 22t29 9l490 0q39 0 66-27t27-66-27-66-66-27-66 27-27 66q0 16 6 31l-402 0q-18 0-29 9t-12 22z m0 125q0 14 9 22t22 9l599 0q-6 15-6 31 0 39 27 66t66 27 66-27 27-66-27-66-66-27l-687 0q-14 0-22 9t-9 22z m0 125q0 14 9 22t22 9l287 0q-6 16-6 31 0 39 27 66t66 27 66-27 27-66-27-66-66-27l-375 0q-14 0-22 9t-9 22z" horiz-adv-x="1000" />
<glyph glyph-name="flickr" unicode="&#x46;" d="M0 350q0 104 73 177t177 73 177-73 73-177-73-177-177-73-177 73-73 177z m552 0q0 104 73 177t177 73 177-73 73-177-73-177-177-73-177 73-73 177z" horiz-adv-x="1052" />
<glyph glyph-name="snowflake" unicode="&#xe9da;" d="M224 240q6 25 28 39l64 37q-4 17-4 34t4 35l-64 35q-22 14-28 39-2 9-2 17 0 16 8 31 12 22 38 28 8 2 17 2 16 0 30-8l64-37q28 21 59 33l0 74q0 25 19 44t44 19 44-19 19-44l0-74q31-12 59-33l64 37q13 7 28 7 9 0 19-2 25-6 38-28 8-14 8-30 0-8-2-17-6-25-28-39l-64-37q4-17 4-33t-4-33l64-37q22-14 28-39 2-9 2-17 0-16-8-30-13-22-38-28-10-2-19-2-15 0-28 7l-64 37q-26-21-59-33l0-74q0-25-19-44t-44-19-44 19-19 44l0 74q-31 12-59 33l-64-37q-13-7-28-7-9 0-19 2-25 6-38 28-8 14-8 30 0 8 2 17z m214 109q0-25 18-45 20-18 45-18t44 19 19 44-19 44-44 19-44-19-19-44z" horiz-adv-x="1000" />
<glyph glyph-name="google" unicode="&#x47;" d="M0 32q0 87 89 155t215 68l54 0q-42 40-42 86 0 29 16 58-10-1-29-1-104 0-170 65t-66 160q0 91 82 159t187 68l310 0-69-50-98 0q47-18 74-68t27-111q0-93-88-162-37-29-48-46t-11-42q0-19 27-48t54-49q61-43 85-88t24-113q0-90-82-157t-222-67q-133 0-225 50t-92 132z m112 33q0-69 59-118t146-49q119 0 173 44t54 117q0 19-4 32-3 11-7 21t-12 19-14 16-20 17-21 15-25 18-26 18q-39 12-77 12l-4 0q-87 0-153-47-68-48-68-114z m66 559q11-79 61-136t110-58l4 0q56 0 90 52 27 42 27 99 0 16-2 34-10 79-60 134t-110 57l-4 0q-57 0-91-51-27-41-27-98 0-16 2-33z" horiz-adv-x="646" />
<glyph glyph-name="cloud-sun" unicode="&#xe9d9;" d="M0 131q0 88 61 151t149 67q-23 45-23 94 0 90 64 154t154 64q89 0 153-62 63-61 65-152 76-33 125-100 14 2 31 2 90 0 154-64t64-154-64-154-154-64q-41 0-78 14-88-76-203-76t-203 76q-37-14-78-14-90 0-154 64t-64 154z m0 312q0 14 9 22t22 9l62 0q14 0 22-9t9-22-9-22-22-9l-62 0q-14 0-22 9t-9 22z m62-312q0-64 46-110t110-46q49 0 90 29 76-92 191-92t191 92q41-29 90-29 64 0 110 46t46 110-46 110-110 46q-31 0-59-12-37 70-107 107-28 16-59 21-28 8-57 8-115 0-191-90-19-23-31-47-1 0-16 4-23 8-43 8-64 0-110-46t-46-110z m57 554q-11 12-11 23t11 22 22 11 23-11l43-45q11-11 11-21t-11-21-21-11l-21 11z m131-242q0-38 20-72 92 103 230 103 27 0 61-6-10 57-53 94t-102 37q-64 0-110-46t-46-110z m125 312l0 62q0 14 9 22t22 9 22-9 9-22l0-62q0-14-9-22t-22-9-22 9-9 22z m230-113q-11 11-11 21t11 21l43 45q12 11 23 11t22-11 11-22-11-23l-45-43q-11-11-21-11z m82-199q0 14 9 22t22 9l62 0q14 0 22-9t9-22-9-22-22-9l-62 0q-14 0-22 9t-9 22z" horiz-adv-x="1000" />
<glyph glyph-name="viadeo" unicode="&#x48;" d="M0 217q0-147 101-257t260-110q158 0 259 110 101 108 101 257 0 78-27 146-40-25-85-34 22-51 22-114 0-76-36-142-37-66-99-101-62-36-135-36-75 0-136 36-63 37-98 101-37 65-37 142 0 117 80 202 80 83 191 83 51 0 98-19 4 39 27 86-57 21-125 21-160 0-266-118-95-107-95-253z m280-253l56-4q74 47 125 109t73 124 31 126q6 41 6 80 0 21-2 40-5 55-13 99t-16 69l-9 25q-22 68-44 119t-32 67l-11 17q39-20 63-48 23-29 28-53 4-20 4-39l0-7q-1-22-6-35l-5-13q4-58 5-112 0-52-5-102-9-100-31-167t-50-122-58-86-55-52-41-29z m275 637q4 40 23 64l18 25q12 14 39 27t48 19l21 6q36 8 67 35t44 51l13 23q41-57 49-129 4-32 3-57 0-34-6-59l-11-45q-12-33-34-60t-37-37l-15-11q-34-20-67-20l-109 53q58 32 101 65t64 58 33 45 15 31l2 10q-18-40-49-73t-62-52-61-33-47-19l-18-5q-25 44-25 79 0 5 1 10z" horiz-adv-x="879" />
<glyph glyph-name="instapaper" unicode="&#x49;" d="M0-117q102 6 130 27 30 21 30 107l0 666q0 82-30 106-28 23-130 28l0 28 489 0 0-28q-102-4-131-28-30-24-30-106l0-666q0-86 30-107t131-27l0-28-489 0 0 28z" horiz-adv-x="489" />
<glyph glyph-name="cloud-moon" unicode="&#xe9d8;" d="M2 131q0 90 64 154t154 64q18 0 31-2 78 107 211 125-9 31-9 64 0 31 8 63 17 66 63 113 39 39 94 59 7 3 13 3 11 0 20-10 10-10 10-22 0-5-2-10-12-33-12-65 0-20 4-39 12-52 50-91 39-39 91-51 20-4 40-4 33 0 66 12 5 2 10 2 12 0 22-10 10-9 10-20 0-6-3-13-20-55-59-94-8-8-27-21 66-21 108-78t42-129q0-90-64-154t-154-64q-41 0-78 14-88-76-203-76t-203 76q-37-14-78-14-90 0-154 64t-64 154z m62 0q0-64 46-110t110-46q49 0 90 29 76-92 191-92t191 92q41-29 90-29 64 0 110 46t46 110-46 110-110 46q-31 0-59-12-2 2-5 7t-3 7q-26 40-59 68-38 29-84 43-35 12-72 12-14 0-14-2-69-2-123-39t-86-96q-27 12-59 12-64 0-110-46t-46-110z m455 445q-4-20-4-41 0-33 12-63 134-9 219-117 65 16 103 64-8 0-15 0-102 0-176 74-73 73-73 171 0 10 0 20-7-5-16-14-39-39-51-94z" horiz-adv-x="1000" />
<glyph glyph-name="fog-sun" unicode="&#xe9d7;" d="M94 8q0 14 9 22t22 9l750 0q14 0 22-9t9-22-9-22-22-9l-750 0q-14 0-22 9t-9 22z m0 125q0 14 9 22t22 9l750 0q14 0 22-9t9-22-9-22-22-9l-750 0q-14 0-22 9t-9 22z m0 125q0 14 9 22t22 9l750 0q14 0 22-9t9-22-9-22-22-9l-750 0q-14 0-22 9t-9 22z m0 125q0 14 9 22t22 9l62 0q14 0 22-9t9-22-9-22-22-9l-62 0q-14 0-22 9t-9 22z m119 242q-11 12-11 23t11 22 22 11 23-11l43-45q11-11 11-21t-11-21-21-11l-21 11z m68-242q0 90 64 154t154 64 154-64 64-154q0-9-4-31l-62 0q4 17 4 31 0 64-46 110t-110 46-110-46-46-110q0-15 4-31l-62 0q-4 22-4 31z m187 312l0 62q0 14 9 22t22 9 22-9 9-22l0-62q0-14-9-22t-22-9-22 9-9 22z m230-113q-11 11-11 21t11 21l43 45q12 11 23 11t22-11 11-22-11-23l-45-43q-11-11-21-11z m82-199q0 14 9 22t22 9l62 0q14 0 22-9t9-22-9-22-22-9l-62 0q-14 0-22 9t-9 22z" horiz-adv-x="1000" />
<glyph glyph-name="weibo" unicode="&#x4a;" d="M0 178q0 161 184 347 117 116 236 162 56 23 97 23 45 0 72-27 26-26 26-72 0-31-12-72-4-14 3-18t16-1l10 4q96 40 170 40t106-42q15-22 15-52 0-31-16-71-7-10-3-17t8-9 15-5q62-19 106-62t44-107q0-59-41-121t-112-113-178-84-229-33q-131 0-248 39t-194 115-77 175z m125-48q10-101 125-161 92-49 209-49 29 0 60 3 153 15 255 97 92 75 92 165 0 9-1 18-10 100-125 160-93 49-210 49-29 0-59-3-101-10-183-51t-126-101q-38-53-38-109 0-9 1-18z m160-62q-13 29-13 59 0 35 18 70 31 64 104 96 45 20 91 20 27 0 54-7 76-20 109-82 17-32 17-66 0-32-15-65-31-71-109-104-44-19-88-19-34 0-67 11-73 23-101 87z m56 19q6-25 30-35 13-6 27-6 12 0 24 4 28 9 43 33 10 16 10 32 0 7-3 15-6 24-30 34-13 5-26 5-12 0-25-4-27-9-41-32-11-16-11-33 0-7 2-13z m141 79q3-9 13-13 5-2 10-2t10 2q11 4 16 13t2 18-12 13q-9 3-20-1t-16-13q-3-6-3-12l0-6z m321 621q-1 5-1 10 0 13 8 25 10 16 29 21 34 7 68 7 51 0 100-15 83-27 143-93t78-153q7-35 7-68 0-51-16-98l0-1q-6-18-23-27-11-5-22-5-7 0-15 2-19 6-27 23-5 11-5 21 0 8 2 15l0 1q11 34 11 70 0 23-4 48-13 62-56 109t-102 66q-35 10-70 10-24 0-49-5-5-1-10-1-14 0-26 8-16 11-20 30z m40-157q-1 5-1 10 0 10 6 21 9 14 26 18 19 4 37 4 67 0 115-53 29-33 38-75 3-17 3-33 0-24-8-48-5-16-20-23-9-5-18-5-7 0-13 2-16 5-24 20-4 9-4 18 0 7 2 13 4 14 4 26 0 28-21 50-22 26-54 26-10 0-20-2-5-1-9-1-11 0-21 7-14 9-18 25z" horiz-adv-x="1235" />
<glyph glyph-name="klout" unicode="&#x4b;" d="M0-150l0 1000 257 0 0-371 229 0q85 123 257 371l286 0-328-477q0-12 97-143t193-256l96-124-343 0q-47 66-143 200t-143 201l-200 0 0-400-257 0z" horiz-adv-x="1086" />
<glyph glyph-name="fog-moon" unicode="&#xe9d5;" d="M94 8q0 14 9 22t22 9l750 0q14 0 22-9t9-22-9-22-22-9l-750 0q-14 0-22 9t-9 22z m0 125q0 14 9 22t22 9l750 0q14 0 22-9t9-22-9-22-22-9l-750 0q-14 0-22 9t-9 22z m0 125q0 14 9 22t22 9l750 0q14 0 22-9t9-22-9-22-22-9l-750 0q-14 0-22 9t-9 22z m188 254q9 88 71 150 39 39 94 59 6 2 11 2 12 0 22-10t10-21q0-5-2-10-12-33-12-66 0-20 4-40 12-52 51-91 39-38 91-50 20-4 39-4l65 12q5 2 10 2 12 0 21-10t10-22q0-5-2-11-10-28-23-51l-82 0q16 14 18 18-10 0-20 0-99 0-171 73-74 75-74 176 0 7 0 15-7-5-16-14-55-55-55-133t55-133l2-2-80 0q-40 61-40 133 0 14 1 27z" horiz-adv-x="1000" />
<glyph glyph-name="fog-cloud" unicode="&#xe9d6;" d="M0 6q0 14 9 22t22 9l937 0q14 0 22-9t9-22-9-22-22-9l-937 0q-14 0-22 9t-9 22z m0 125q0 14 9 22t22 9l937 0q14 0 22-9t9-22-9-22-22-9l-937 0q-14 0-22 9t-9 22z m0 125q0 14 9 22t22 9l937 0q14 0 22-9t9-22-9-22-22-9l-937 0q-14 0-22 9t-9 22z m0 125q0 90 64 154t154 64q18 0 31-2 43 61 109 94 67 33 141 33t141-33q66-33 109-94 14 2 31 2 90 0 154-64t64-154q0-9-4-31l-62 0q4 17 4 31 0 64-46 110t-110 46q-31 0-59-12-33 62-92 100-58 37-131 37t-131-37q-59-38-92-100-27 12-59 12-64 0-110-46t-46-110q0-15 4-31l-62 0q-4 22-4 31z" horiz-adv-x="1000" />
<glyph glyph-name="linkedin-2" unicode="&#x4c;" d="M0 730q0 50 35 83t91 33q55 0 89-32 35-33 35-86 0-48-34-80-35-33-92-33l-1 0q-55 0-89 33t-34 83z m13-875l0 668 222 0 0-668-222 0z m345 0l222 0 0 373q0 35 8 54 14 34 43 58t72 24q112 0 112-151l0-357 222 0 0 383q0 148-70 225t-185 77q-129 0-201-111l0-2-1 0 1 2 0 95-222 0q2-32 2-199t-2-469z" horiz-adv-x="1036" />
<glyph glyph-name="meetup" unicode="&#x4d;" d="M0 390q0 35 2 105 24 8 48 8l18 0q17-23 40-70t31-61q2 7 8 37t10 43 11 37 16 41 20 31q28-5 46-5 6 0 11 1 24-54 46-163t39-155q-1 0-4 1l-3 1q-9 0-26-6t-22-7q-40 101-62 203-15-26-15-89t-11-88l-5 2q-8 0-22-2t-21-2l-18 0q-27 48-57 89-3-6-3-15t3-26 3-25l-1-12q-30-15-52-15-7 0-10 1-17 56-17 142z m355-76q0 27 8 58t28 57 47 27q10 0 28-5t23-6q9-40 9-81 0-28-6-55-12 4-38 5t-37 4q-5-20-5-37 0-21 10-37t30-16q9 0 26 5t26 5q17 0 23-14-42-16-82-16-46 0-68 30t-22 78z m58 28l8 1q3 0 8-2t7-2l7 3q2 14 2 22 0 18-5 40-22-25-27-62z m110-54q0 123 78 182 32-3 60-23-1-17-8-67-5-39-5-65l0-14q-20-2-29-2-8 0-43 5-5-12-5-23 0-22 17-38t39-16q26 0 41 23 18-6 21-17-22-21-63-21-37 0-70 20t-33 55z m56 43q4-6 14-6l9 0q9 19 9 49 0 13-6 39-3-8-10-25t-12-31-5-27z m99 19q-2 26 23 26 6 0 18-1t17-1q3 15 3 31 0 29-8 87t-8 87q0 43 10 72 5-3 27-6t41-25q-6-26-6-67 0-20 4-81 2-35 2-61 0-20-1-34l6 0q7 0 9 6t2 13 4 7q8 0 19-9t23-22 15-16q-9-7-41-9t-39-4q-1-12-1-36 0-16 1-33t2-38 1-33q-8-1-23-2t-22-2l0 20q0 21-3 57-4 44-4 61-6 2-32 4t-38 10z m215 8q0 20 2 58 11-1 20-5t21-11 18-10l-1-27q0-59 9-116 19 7 31 23t17 42 6 42 2 45l0 11q3-1 9-1 20-2 49-25 0-3 1-10t1-10q0-15-4-30t-8-22-15-25-14-23q-15-12-34-42-21-7-38-7-71 0-71 142z m200-108q7 6 24 10 0 3 1 9 4 35 7 57t13 59 22 60 36 40 53 18q34 0 76-24 17-37 17-75 0-66-47-119t-113-68q-2-32-2-48 0-73 18-117-8 2-37 2-15 0-22 2-9 21-17 96t-30 100z m90 25q39 10 66 48t27 79q0 30-15 56-23-21-40-56t-23-60-15-68z" horiz-adv-x="1341" />
<glyph glyph-name="fog" unicode="&#xe9d4;" d="M187 194q0 14 9 22t22 9l562 0q14 0 22-9t9-22-9-22-22-9l-562 0q-14 0-22 9t-9 22z m0 125q0 14 9 22t22 9l562 0q14 0 22-9t9-22-9-22-22-9l-562 0q-14 0-22 9t-9 22z m0 125q0 14 9 22t22 9l562 0q14 0 22-9t9-22-9-22-22-9l-562 0q-14 0-22 9t-9 22z m0 125q0 14 9 22t22 9l562 0q14 0 22-9t9-22-9-22-22-9l-562 0q-14 0-22 9t-9 22z" horiz-adv-x="1000" />
<glyph glyph-name="vk" unicode="&#x4e;" d="M0 654q10 8 25 12 14 4 25 4l9 0q10 0 24-1 22-1 32-1 6 0 38 2 16 1 29 1t23-1q20-2 32-8 6-3 13-13t12-19 12-26 10-22q38-82 94-163 2-3 7-11t9-13 9-12 11-11 11-9 12-6 12 0q28 5 31 117 1 19 1 35 0 74-15 102-6 11-16 18t-25 12-23 11q14 28 50 37t97 9l53 0t26-1 27-3l22-6t20-9 13-14q9-18 11-42 0-7 1-14 0-20-3-52-4-42-4-52-3-23-3-46 0-18 2-38 4-44 30-61 9 1 17 4t16 11 11 12 13 17 11 14q47 62 94 163l9 23t12 27 12 20 16 14q16 7 38 7l9 0q20 0 46-2 32-2 47-2 9 0 28 1t33 2 30-1 26-6 14-13q3-6 3-13 0-29-35-87-17-29-35-53t-46-58-37-47q-2-2-14-18t-18-24-12-23-5-27q0-8 3-15t10-15 10-12 14-13 12-11q71-65 112-117 40-52 40-75 0-33-51-41-26-4-53-4-21 0-43 3-20 2-37 2-26 0-45-5l-6 0q-66 11-139 94-4 4-17 21t-22 26-23 17-27 6q-23-4-31-29t-9-60-10-49q-13-24-79-24-28 0-66 4-78 8-142 40t-101 68-81 93q-104 133-197 322-3 6-11 23t-12 26-10 24-8 28-3 27z" horiz-adv-x="1220" />
<glyph glyph-name="cloud-3" unicode="&#xe9d3;" d="M0 318q0 90 64 154t154 64q18 0 31-2 43 61 109 94 67 33 141 33t141-33q66-33 109-94 14 2 31 2 90 0 154-64t64-154-64-154-154-64q-41 0-78 14-88-76-203-76t-203 76q-37-14-78-14-90 0-154 64t-64 154z m62 0q0-64 46-110t110-46q49 0 90 29 76-92 191-92t191 92q41-29 90-29 64 0 110 46t46 110-46 110-110 46q-31 0-59-12-33 62-92 100-58 37-131 37t-131-37q-59-38-92-100-27 12-59 12-64 0-110-46t-46-110z" horiz-adv-x="1000" />
<glyph glyph-name="cloud-flash" unicode="&#x4f;" d="M0 506q0 90 64 154t154 64q18 0 31-2 43 61 109 94 67 33 141 33t141-33q66-33 109-94 14 2 31 2 90 0 154-64t64-154-64-154-154-64q-41 0-78 14-76-66-182-74l-21-64 62-62-187-187 62 187-62 62 68 68q-84 16-146 70-37-14-78-14-90 0-154 64t-64 154z m62 0q0-64 46-110t110-46q49 0 90 29 76-92 191-92l43 6q89 15 148 86 41-29 90-29 64 0 110 46t46 110-46 110-110 46q-31 0-59-12-33 62-92 100-58 37-131 37t-131-37q-59-38-92-100-27 12-59 12-64 0-110-46t-46-110z" horiz-adv-x="1000" />
<glyph glyph-name="cloud-flash-alt" unicode="&#xe9d1;" d="M0 506q0 90 64 154t154 64q18 0 31-2 43 61 109 94 67 33 141 33t141-33q66-33 109-94 14 2 31 2 90 0 154-64t64-154-64-154-154-64q-41 0-78 14-46-41-111-61l25 78q45 26 74 61 41-29 90-29 64 0 110 46t46 110-46 110-110 46q-31 0-59-12-33 62-92 100-58 37-131 37t-131-37q-59-38-92-100-27 12-59 12-64 0-110-46t-46-110 46-110 110-46q49 0 90 29 44-55 117-78l-49-49q-48 20-80 49-37-14-78-14-90 0-154 64t-64 154z m375-593l62 187-62 62 187 187-62-187 62-62z" horiz-adv-x="1000" />
<glyph glyph-name="plancast" unicode="&#x50;" d="M0 237q10 139 168 173 12 89 43 192t72 146q48 49 120 76t146 27q86 0 164-39t117-110q19-36 42-131t31-155q15-6 34-6 30 0 30 29 0 11-6 34t-5 36l0 4 1 0q27 0 61-51 34-52 34-81 0-20-10-36t-19-25-33-18-33-11l-36-8q-5-1-8-2l0-26q0-173-77-253l25-25q4-2 25-12t36-19 19-18q-65-51-132-51-34 0-75 17-88-37-180-37-118 0-234 61-36-8-55-19-7-4-27-18t-37-24-28-10q-3 18-3 37 0 79 53 126-60 99-62 257l-7 1-3 0q-30 1-76-17-48-18-64-19-4 0-10 2z m232-93q0-13 7-27 27-96 89-138 43-29 106-47t117-18q66 0 146 28t120 72q68 73 68 257 0 226-92 379-12 20-18 28t-19 16-33 8q-50 0-107-61-76 47-140 47-59 0-105-43t-71-105-42-141-22-141-5-115z m181 407q0 22 16 38t37 16q22 0 38-16t16-38-16-37-38-15q-21 0-37 15t-16 37z m56 18q0-12 12-12 5 0 9 4t4 9-4 9-9 4q-12 0-12-13z m94-60l2 2-1-3z m5 5l52 52 51-52q-22-7-50-7-29 0-53 7z m2-22q27-5 50-5 22 0 49 5l-49-49z m105 16l0 3 1-2z m27 43q0 22 16 38t38 16 38-16 16-38-16-37-38-15-38 15-16 37z m56 18q0-5 4-9t8-4q5 0 9 4t4 9q0 13-13 13-5 0-9-4t-4-9z" horiz-adv-x="1050" />
<glyph glyph-name="drizzle" unicode="&#xe9d2;" d="M0 443q0 90 64 154t154 64q18 0 31-2 43 61 109 94 67 33 141 33t141-33q66-33 109-94 14 2 31 2 90 0 154-64t64-154-64-154-154-64q-41 0-78 14-88-76-203-76t-203 76q-37-14-78-14-90 0-154 64t-64 154z m62 0q0-64 46-110t110-46q49 0 90 29 76-92 191-92t191 92q41-29 90-29 64 0 110 46t46 110-46 110-110 46q-31 0-59-12-33 62-92 100-58 37-131 37t-131-37q-59-38-92-100-27 12-59 12-64 0-110-46t-46-110z m375-468q0 35 62 125l16-23q18-27 31-55 16-32 16-47 0-25-19-44t-44-19-44 19-19 44z" horiz-adv-x="1000" />
<glyph glyph-name="disqus" unicode="&#x51;" d="M0-132l0 957q121 21 297 21 140 0 236-24t166-77q165-125 165-370 0-260-161-395-148-126-451-126-143 0-251 14z m220 162q19-4 77-4l4 0q153 0 240 85 89 86 89 256 0 154-82 232t-229 78q-66 0-100-9l0-638z" horiz-adv-x="863" />
<glyph glyph-name="rain-1" unicode="&#xe9d0;" d="M0 506q0 90 64 154t154 64q18 0 31-2 43 61 109 94 67 33 141 33t141-33q66-33 109-94 14 2 31 2 90 0 154-64t64-154-64-154-154-64q-41 0-78 14-88-76-203-76t-203 76q-37-14-78-14-90 0-154 64t-64 154z m62 0q0-64 46-110t110-46q49 0 90 29 76-92 191-92t191 92q41-29 90-29 64 0 110 46t46 110-46 110-110 46q-31 0-59-12-33 62-92 100-58 37-131 37t-131-37q-59-38-92-100-27 12-59 12-64 0-110-46t-46-110z m125-406q0 35 62 125l16-23q18-27 31-55 16-32 16-47 0-25-19-44t-44-19-44 19-19 44z m252-187q0 35 62 125l16-23q18-27 31-55 16-32 16-47 0-25-19-44t-44-19-44 19-19 44z m248 62q0 35 62 125l16-23q18-27 31-55 16-32 16-47 0-25-19-44t-44-19-44 19-19 44z" horiz-adv-x="1000" />
<glyph glyph-name="rss-5" unicode="&#x52;" d="M0-16q0 55 39 94t94 39 94-39 39-94q0-56-39-95t-94-39-94 39-39 94z m0 335l0 191q179 0 331-89t241-241 89-331l-192 0q0 194-137 331-138 138-331 138z m0 339l0 192q203 0 388-80t319-214 214-319 80-388l-192 0q0 164-64 314t-173 258-258 172-314 64z" horiz-adv-x="1000" />
<glyph glyph-name="windy" unicode="&#xe9cf;" d="M0 131q0 14 9 22t22 9l250 0q14 0 22-9t9-22-9-22-22-9l-250 0q-14 0-22 9t-9 22z m0 125q0 14 9 22t22 9l125 0q14 0 22-9t9-22-9-22-22-9l-125 0q-14 0-22 9t-9 22z m62 125q0 14 9 22t22 9l125 0q14 0 22-9t9-22-9-22-22-9l-125 0q-14 0-22 9t-9 22z m209-51q0 78 54 135t132 61q74 76 179 76t179-76q78-3 132-61 54-57 54-135 0-80-57-137t-139-57q-18 0-33 2-62-41-136-41t-136 41q-16-2-35-2-80 0-137 57t-57 137z m62 0q0-55 38-93t93-38q26 0 47 8 55-47 124-47t122 47q23-8 47-8 55 0 94 38t39 93-39 94-94 39q-9 0-18-2-56 78-151 78t-151-78q-8 2-20 2-55 0-93-39t-38-94z" horiz-adv-x="1000" />
<glyph glyph-name="skype-2" unicode="&#x53;" d="M0 577q0 113 80 193t193 80q78 0 145-42 36 7 80 7 195 0 333-138t138-332q0-49-11-101 28-59 28-121 0-113-80-193t-193-80q-68 0-129 32-45-8-86-8-194 0-332 138t-138 333q0 47 9 94-37 65-37 138z m221-366q0-41 30-85 71-104 246-104 50 0 97 11t88 34 66 64 25 95q0 58-30 98t-74 58-96 33-96 23-74 26-30 45q0 33 37 49t75 16q40 0 66-13t38-30 21-35 25-30 40-13q27 0 48 19t21 46-15 54q-30 55-95 80t-138 25q-46 0-89-9t-83-29-65-57-25-87q0-66 40-107t97-57 115-29 98-34 40-59q0-29-23-49t-51-27-57-7q-38 0-65 11t-39 27-23 35-18 35-23 27-37 11q-28 0-49-17t-21-45z" horiz-adv-x="986" />
<glyph glyph-name="windy-rain" unicode="&#xe9e5;" d="M0 318q0 13 9 21t22 9l250 0q14 0 22-9t9-21q0-13-9-23t-22-10l-250 0q-13 0-22 10t-9 23z m0 125q0 13 9 21t22 9l125 0q14 0 22-9t9-21q0-13-9-23t-22-10l-125 0q-13 0-22 10t-9 23z m62 125q0 13 9 21t22 9l125 0q14 0 22-9t9-21q0-13-9-23t-22-10l-125 0q-13 0-22 10t-9 23z m209-50q0 78 54 134t132 60q74 76 179 76t179-76q78-3 132-60t54-134q0-82-57-139t-139-57q-18 0-33 2-62-39-136-39t-136 39q-16-2-35-2-80 0-137 57t-57 139z m62 0q0-55 38-94t93-39q26 0 47 8 55-45 124-45t122 45q23-8 47-8 55 0 94 39t39 94-39 93-94 38l-18 0q-57 76-151 76t-151-76l-20 0q-55 0-93-38t-38-93z m103-418q0 35 62 125l16-23q18-27 31-55 16-32 16-47 0-25-19-44t-44-19-44 19-19 44z m250-125q0 35 62 125l16-23q18-27 31-55 16-32 16-47 0-25-19-44t-44-19-44 19-19 44z" horiz-adv-x="1000" />
<glyph glyph-name="twitter-3" unicode="&#x54;" d="M0-37q30-3 60-3 176 0 314 108-82 1-147 50t-89 125q20-4 47-4 35 0 67 9-88 17-146 87t-58 161l0 3q53-30 115-31-52 34-83 90t-31 121q0 68 35 127 94-117 230-187t291-78q-7 33-7 58 0 104 74 178t179 74q109 0 184-80 87 18 160 62-28-91-110-140 73 9 144 40-48-75-125-131l0-33q0-101-30-203t-90-194-145-165-202-115-253-43q-209 0-387 113z" horiz-adv-x="1230" />
<glyph glyph-name="youtube-1" unicode="&#x55;" d="M0 123q0 54 6 162 4 53 38 87t87 37q100 5 301 5t301-5q53-3 87-37t38-87q5-90 5-162t-5-162q-4-53-38-87t-87-37q-100-5-301-5t-301 5q-53 3-87 37t-38 87q-6 108-6 162z m67 141l61 0 0-326 59 0 0 326 61 0 0 55-181 0 0-55z m65 603l60 0 38-152 4 0 36 152 60 0-46-148q-23-73-23-75l0-158-59 0 0 151q-2 14-6 26t-9 27-9 25z m116-885q0-48 36-48 32 0 61 35l0-31 52 0 0 281-52 0 0-214q-21-21-31-21-14 0-14 19l0 216-52 0 0-237z m79 575l0 146q0 34 22 53t56 19q33 0 54-20t21-53l0-145q0-36-20-57t-56-21q-35 0-56 22t-21 57z m54-7q0-23 22-23 23 0 23 25l0 153q0 9-7 15t-16 6-16-6-7-15l0-156z m67-612l53 0 0 21q20-25 50-25 47 0 47 62l0 156q0 71-51 71-25 0-46-27l0 123-53 0 0-381z m53 53l0 176q11 11 22 11 22 0 22-28l0-148q0-24-19-24-14 0-25 13z m23 539l0 237 52 0 0-215q0-19 14-19 13 0 31 21l0 213 52 0 0-281-52 0 0 31q-29-35-61-35-36 0-36 48z m114-513q0-38 19-63t57-25q78 0 78 87l0 21-54 0q0-2 1-14t-1-17-3-14-7-12-14-4q-23 0-23 40l0 53 100 0 0 72q0 38-19 60t-57 22q-36 0-58-23t-22-59l0-127z m54 99l0 30q0 31 23 31t23-31l0-30-46 0z" horiz-adv-x="863" />
<glyph glyph-name="snow" unicode="&#xe9e4;" d="M0 506q0 90 64 154t154 64q18 0 31-2 43 61 109 94 67 33 141 33t141-33q66-33 109-94 14 2 31 2 90 0 154-64t64-154-64-154-154-64q-41 0-78 14-88-76-203-76t-203 76q-37-14-78-14-90 0-154 64t-64 154z m62 0q0-64 46-110t110-46q49 0 90 29 76-92 191-92t191 92q41-29 90-29 64 0 110 46t46 110-46 110-110 46q-31 0-59-12-33 62-92 100-58 37-131 37t-131-37q-59-38-92-100-27 12-59 12-64 0-110-46t-46-110z m285-544q4 15 16 20l35 21q-2 9-2 19t2 19l-35 20q-12 8-16 21-1 5-1 9 0 8 4 17 7 13 20 17t27-4l35-21q14 14 31 20l0 41q0 14 11 24t24 11 24-11 11-24l0-41q18-6 31-20l35 21q14 8 27 4t20-17q4-8 4-17 0-4-1-9-4-14-16-21l-35-20q2-9 2-19t-2-19l35-21q12-6 16-20 1-5 1-10 0-9-4-16-7-12-21-16t-27 4l-35 20q-14-12-31-18l0-41q0-15-10-25t-25-10-25 10-10 25l0 41q-17 6-31 18l-35-20q-14-7-27-4t-21 16q-4 7-4 16 0 5 1 10z m117 61q0-15 11-24t24-10 23 10q12 10 12 24t-11 24-24 10-24-10-11-24z" horiz-adv-x="1000" />
<glyph glyph-name="vimeo-1" unicode="&#x56;" d="M0 578q55 65 110 116t96 78 73 43 48 22l17 4q12 2 24 2 19 0 35-6 26-10 43-35t29-55 22-72 15-78 14-80 15-71q32-125 52-178t42-53q24 0 67 56t94 152q26 48 26 91 0 13-2 23-9 52-51 65-11 4-24 4-35 0-83-26 22 130 134 209 85 60 174 60 12 0 24-1 102-8 139-90 18-38 18-88 0-29-6-61-18-102-70-208t-113-188-133-155-124-117-91-69q-42-24-79-24t-70 21-56 48-38 57q-18 38-98 299t-97 281q-1 2-4 4t-14 5-24 0-37-14-50-33z" horiz-adv-x="1146" />
<glyph glyph-name="snow-alt" unicode="&#xe9e1;" d="M0 506q0 90 64 154t154 64q18 0 31-2 43 61 109 94 67 33 141 33t141-33q66-33 109-94 14 2 31 2 90 0 154-64t64-154-64-154-154-64q-34 0-66 12-4 16-12 27-9 19-31 33 1 1 6 5t9 8 5 6q41-29 90-29 64 0 110 46t46 110-46 110-110 46q-31 0-59-12-33 62-92 100-58 37-131 37t-131-37q-59-38-92-100-27 12-59 12-64 0-110-46t-46-110 46-110 110-46q49 0 90 29 0-2 20-20-22-15-31-33-8-12-12-27-33-12-66-12-90 0-154 64t-64 154z m347-356q4 15 16 20l35 21q-2 9-2 19t2 19l-35 20q-12 8-16 21-1 5-1 9 0 8 4 17 7 13 20 17t27-4l35-21q14 14 31 20l0 41q0 14 11 24t24 11 24-11 11-24l0-41q18-6 31-20l35 21q14 8 27 4t20-17q4-8 4-17 0-4-1-9-4-14-16-21l-35-20q2-9 2-19t-2-19l35-21q12-6 16-20 1-5 1-10 0-9-4-16-7-12-21-16t-27 4l-35 20q-14-12-31-18l0-41q0-15-10-25t-25-10-25 10-10 25l0 41q-17 6-31 18l-35-20q-14-7-27-4t-21 16q-4 7-4 16 0 5 1 10z m117 61q0-15 11-24t24-10 23 10q12 10 12 24t-11 24-24 10-24-10-11-24z" horiz-adv-x="1000" />
<glyph glyph-name="snow-heavy" unicode="&#xe9e0;" d="M0 506q0 90 64 154t154 64q18 0 31-2 43 61 109 94 67 33 141 33t141-33q66-33 109-94 14 2 31 2 90 0 154-64t64-154-64-154-154-64q-41 0-78 14-88-76-203-76t-203 76q-37-14-78-14-90 0-154 64t-64 154z m60-392q-1 4-1 7 0 14 16 18l23 6q0 12 6 21l-18 18q-7 7-7 14t7 14q7 8 15 8 7 0 14-7l18-18q9 3 21 6l6 23q4 15 17 15 4 0 8-1 15-4 15-17 0-4-1-8l-6-23q5-3 8-6 4-4 8-10l23 8q3 0 6 0 15 0 20-16 1-4 1-8 0-13-17-18l-23-6q0-12-6-21l18-18q8-7 8-15 0-7-7-14-8-8-16-8-7 0-15 7l-16 18q-11-3-21-6l-8-23q-3-16-17-16-3 0-8 1-16 4-16 18 0 4 1 9l6 23q-7 3-16 16l-23-8q-3 0-5 0-15 0-19 16z m3 392q0-64 46-110t110-46q49 0 90 29 76-92 191-92t191 92q41-29 90-29 64 0 110 46t46 110-46 110-110 46q-31 0-59-12-33 62-92 100-58 37-131 37t-131-37q-59-38-92-100-27 12-59 12-64 0-110-46t-46-110z m81-381q7-7 15-7l15 7q7 7 7 13 0 7-8 14-7 8-15 8l-14-7q-7-7-7-14t7-14z m204-163q4 15 16 20l35 21q-2 9-2 19t2 19l-35 20q-12 8-16 21-1 5-1 9 0 8 4 17 7 13 20 17t27-4l35-21q14 14 31 20l0 41q0 14 11 24t24 11 24-11 11-24l0-41q18-6 31-20l35 21q14 8 27 4t20-17q7-13 3-27t-16-21l-35-20q2-9 2-19t-2-19l35-21q12-6 16-20t-3-26q-7-12-21-16t-27 4l-35 20q-14-12-31-18l0-41q0-15-10-25t-25-10-25 10-10 25l0 41q-17 6-31 18l-35-20q-14-7-27-4t-21 16q-4 7-4 16 0 5 1 10z m117 61q0-15 11-24t24-10 23 10q12 10 12 24t-11 24-24 10-24-10-11-24z m277 81q4 15 17 15 4 0 8-1l23-6q3 5 8 10 3 3 8 6l-6 23q-1 4-1 8 0 13 15 17 4 1 8 1 13 0 17-15l6-23q12-2 21-6l18 18q7 7 14 7 8 0 15-8 7-7 7-14t-7-14l-18-18q6-10 6-21l23-6q16-5 16-18 0-3-1-7-4-16-19-16-2 0-5 0l-23 8q-8-12-16-16l6-23q1-5 1-9 0-14-16-18-4-1-8-1-13 0-17 16l-8 23q-12 2-21 6l-16-18q-7-7-15-7t-16 8q-7 7-7 14t8 15l18 18q-6 9-6 21l-23 6q-17 4-17 18 0 3 1 8z m85-41q7-7 15-7l15 7q7 7 7 13 0 7-8 14-7 8-15 8l-14-7q-7-7-7-14t7-14z" horiz-adv-x="1000" />
<glyph glyph-name="windows" unicode="&#x57;" d="M0-43l105 371q35 20 86 31t84 13l34 1q50 0 104-10 101-20 144-61l-104-370q-36 28-80 46t-69 21l-26 4q-34 3-65 3-16 0-43-2t-84-14-87-33z m126 477l105 371q35 20 86 32t84 13l33 1q51 0 104-10 101-20 144-61l-104-371q-36 28-80 46t-69 21l-26 4q-35 3-64 3-16 0-43-2t-84-13-88-33z m431-513l104 371q37-28 81-46t69-21l25-4q34-3 65-3 16 0 43 2t84 13 87 33l-104-371q-35-20-86-31t-84-12l-33-2q-51 0-104 10-101 20-145 61z m120 475l104 370q37-28 81-46t69-21l25-4q34-3 65-3 16 0 43 2t84 13 87 33l-104-370q-35-20-86-32t-85-13l-33-2q-52 0-103 11-101 19-145 61z" horiz-adv-x="1233" />
<glyph glyph-name="xing" unicode="&#x58;" d="M0 152l219 0 173 286-130 229-219 0 130-229z m362 90l346 608 232 0-345-608 222-392-232 0z" horiz-adv-x="940" />
<glyph glyph-name="hail" unicode="&#xe9de;" d="M0 506q0 90 64 154t154 64q18 0 31-2 43 61 109 94 67 33 141 33t141-33q66-33 109-94 14 2 31 2 90 0 154-64t64-154-64-154-154-64q-41 0-78 14-88-76-203-76t-203 76q-37-14-78-14-90 0-154 64t-64 154z m62 0q0-64 46-110t110-46q28 0 55 10l35 14 29-25q70-61 162-61t162 61l29 25 35-14q26-10 55-10 64 0 110 46t46 110-46 110-110 46q-13 0-21-2l-37-6-23 31q-74 102-199 102t-199-102l-23-31-37 6q-8 2-21 2-64 0-110-46t-46-110z m62-344q0 25 19 44t44 19 43-20q20-18 20-43t-19-44-44-19-44 19-19 44z m125-250q0 25 19 44t44 19 43-20q20-18 20-43t-19-44-44-19-44 19-19 44z m187 187q0 25 19 44t44 19 43-20q20-18 20-43t-19-44-44-19-44 19-19 44z m187-187q0 25 19 44t44 19 43-20q20-18 20-43t-19-44-44-19-44 19-19 44z m125 250q0 25 19 44t44 19 43-20q20-18 20-43t-19-44-44-19-44 19-19 44z" horiz-adv-x="1000" />
<glyph glyph-name="yahoo" unicode="&#x59;" d="M0 641l6-19q4-6 8-10t6-5l2-2 19-10 111 0 287-344q11-12 11-25l0-192q0-8-3-12t-6-5l-3 0q-112 0-142-3-10 0-10-9l0-55 516 0 0 57q0 3-3 5t-5 2l-146 0q-9 0-9 15l0 202q-1 3 2 7t6 7l3 3q11 11 264 249l133 0q9 0 18 7l17 19q6 7 6 18l0 14q-1 3-3 5t-3 2l-438 0-7-6q-1-6 2-13t6-10l2-4 23-23 18-7 115 0-207-195-228 291 41 0q13-1 22 4l68 21q1 0 3 1t5 5 3 9l0 14q0 3-2 5t-4 2l-492 0q-8-1-10-7l0-8z m1190 109l185-7-83-567-61 3z m13-763l4 110 110-4-4-110z" horiz-adv-x="1375" />
<glyph glyph-name="clouds" unicode="&#xe9dd;" d="M0 131q0 90 64 154t154 64q18 0 31-2 1 4 4 4-4 19-4 29 0 72 51 123t123 51l14 0q72 90 187 90t187-90l14 0q72 0 123-51t51-123q0-66-47-117 47-61 47-133 0-90-64-154t-154-64q-41 0-78 14-88-76-203-76t-203 76q-37-14-78-14-90 0-154 64t-64 154z m62 0q0-64 46-110t110-46q49 0 90 29 76-92 191-92t191 92q41-29 90-29 64 0 110 46t46 110q0 52-33 96-23 29-56 45t-67 16l-25-2q-18-3-33-10-33 62-92 100-58 37-131 37-103 0-178-76-24-26-41-55 0-6-4-6-27 12-59 12-64 0-110-46t-46-110z m256 285q82 59 182 59 73 0 141-33 66-33 109-94 14 2 31 2 71 0 129-43 27 33 27 74 0 47-32 79t-79 32q-22 0-43-8-21 43-64 70t-94 27-94-27q-43-27-64-70-20 8-43 8-37 0-65-21t-40-55z" horiz-adv-x="1000" />
<glyph glyph-name="clouds-flash" unicode="&#x5a;" d="M0 336q0 90 64 154t154 64q18 0 31-2 1 4 4 4-4 19-4 29 0 72 51 123t123 51l14 0q72 90 187 90t187-90l14 0q72 0 123-51t51-123q0-66-47-117 47-59 47-133 0-90-64-154t-154-64q-41 0-78 14-81-72-193-74l-10-20 62-62-187-125 62 125-62 62 45 29q-72 20-123 64-37-14-78-14-90 0-154 64t-64 154z m62 0q0-64 46-110t110-46q49 0 90 29 74-89 187-92l47 6q89 15 148 86 41-29 90-29 64 0 110 46t46 110q0 52-33 96-23 29-56 45t-67 16l-25-2q-18-3-33-10-33 62-92 100-58 37-131 37-103 0-178-76-24-24-41-55-1-3-4-6-27 12-59 12-64 0-110-46t-46-110z m256 285q82 59 182 59 73 0 141-33 66-33 109-94 14 2 31 2 70 0 129-41 27 32 27 72 0 47-32 79t-79 32q-22 0-43-8-21 45-64 71t-94 26-94-26-64-71q-20 8-43 8-37 0-65-21t-40-55z" horiz-adv-x="1000" />
<glyph glyph-name="chrome" unicode="&#x5b;" d="M0 327q0 75 23 156t62 145q62 104 183 164t249 60q130 0 250-82t183-202q50-86 50-214 0-150-71-266t-192-177-270-60q20 36 61 110t74 131 65 108l1 2q3 5 12 19t13 20 10 17 10 21 6 21q6 24 6 48 0 80-48 142l275 81q-285 0-428-1-7 1-22 1-99 0-166-74t-56-173q-2 9-2 28 0 44 15 77l-204 201 198-341q19-72 80-118t135-46q17 0 33 3l-66-276q-115 0-223 71t-175 176q-66 102-66 230z m312 19q0-77 55-132t131-55 131 55 55 132q0 76-54 131t-131 55-131-55-54-131z" horiz-adv-x="998" />
<glyph glyph-name="email" unicode="&#x5d;" d="M0 62l0 576q0 1 3 19l339-290-338-325q-4 14-4 20z m45 635q7 3 17 3l913 0q9 0 18-3l-340-291-45-36-89-73-89 73-45 36z m1-694l341 327 132-107 132 107 341-327q-8-3-17-3l-913 0q-8 0-16 3z m650 364l338 290q3-9 3-19l0-576q0-9-3-20z" horiz-adv-x="1037" />
<glyph glyph-name="macstore" unicode="&#x5e;" d="M0 237l0 151q0 10 7 18t18 8l265 0-115-201-150 0q-11 0-18 7t-7 18z m122-244l66-38z m10 44q-3 11 2 20l304 528q5 9 15 12t19-3l65-37q10-5 13-16t-3-20l-303-528q-5-9-16-12t-20 3l-65 38q-9 4-12 15z m308 176l115 201 67 0 94-201-276 0z m78 625q1 9 6 12 10 5 36-31t72-116 62-105q28-44 76-131t91-169 44-84q11-19-2-36t-31-24q-18-8-24-9t-30 7q-30 15-190 393-5 11-14 31t-17 38-19 42-19 44-17 42-14 39-8 33-2 24z m328-424l235 0q10 0 18-8t8-18l0-151q0-10-8-18t-18-8l-133 0q-4 16-8 23l-24 46q-64 121-70 132z m13-317q3 11 13 16l37 19q10 5 21 2t16-14l31-60q12-24-10-39l-27-16q-10-5-21-3t-17 13l-40 62q-6 10-3 21z m77-145q1 16 4 21t13 14l24 9q61 12 72-70 3-32-1-76-4 12-44 30t-55 39q-13 18-13 34z" horiz-adv-x="1106" />
<glyph glyph-name="myspace" unicode="&#x5f;" d="M0 175l0 350 140 0 0-207 805 0 0 207 141 0 0-350-1086 0z" horiz-adv-x="1086" />
<glyph glyph-name="podcast" unicode="&#x60;" d="M0 331q0 141 67 261t182 189 251 70 251-70 182-189 67-261q0-4-1-10t-1-10q-8 208-153 353t-347 145-347-145-153-353q0 4-1 10t-1 10z m183 1q0 136 93 233t224 97 224-97 93-233q0-3-1-10t-1-10q-8 129-99 219t-217 90-217-90-99-219q0 3-1 10t-1 10z m166-195q0 33 5 59t11 43 19 29 23 18 29 10 31 4 35 1 35-1 31-4 29-10 23-18 19-29 11-43 5-59q0-118-45-203t-107-85-107 85-45 203z m47 280q0 44 31 76t74 32 74-32 31-76-31-76-74-32-74 32-31 76z" horiz-adv-x="1000" />
<glyph glyph-name="amazon" unicode="&#x61;" d="M2 74q5 8 16 1 250-145 544-145 196 0 387 73 5 2 15 6t14 6q15 6 24-6t-6-22q-18-13-46-30-86-51-192-79t-207-28q-156 0-295 55t-249 154q-6 5-6 10 0 3 2 6z m301 285q0 69 34 118t93 74q54 23 133 33 27 3 88 8l0 17q0 64-14 86-21 30-66 30l-8 0q-33-3-57-21t-31-50q-4-20-20-23l-115 14q-17 4-17 18 0 3 1 7 17 89 84 132t156 48l25 0q114 0 178-59 10-10 19-22t14-21 9-26 6-24 3-28 1-26l0-242q0-26 8-48t15-31 23-31q6-9 6-16 0-8-8-14-83-72-90-78-12-9-29-2-14 12-25 23t-15 16-15 20-14 20q-56-61-110-76-34-10-84-10-77 0-127 48t-50 135z m172 20q0-39 20-63t53-24q3 0 9 1t8 1q42 11 65 54 11 19 17 42t6 37 1 46l0 25q-58 0-88-8-88-25-88-111z m420-322q2 4 6 8 25 17 48 23 38 10 74 11 10 1 19-1 45-4 54-15 4-6 4-18l0-7q0-35-19-83t-53-77q-5-4-9-4-2 0-4 1-6 3-3 11 37 87 37 121 0 11-4 16-10 12-56 12-17 0-40-2-25-3-46-6-6 0-8 2t-1 4q0 1 1 3z" horiz-adv-x="1100" />
<glyph glyph-name="steam" unicode="&#x62;" d="M0 470q0 55 39 94t94 39q47 0 84-30t47-75l502-202q32 19 68 19 2 0 7-1t8-1l110 159q1 73 53 125t125 52q74 0 126-52t52-126-52-126-126-52l-170-124q-5-51-43-86t-89-35q-48 0-84 30t-46 75l-502 201q-32-19-68-19-55 0-94 39t-39 94z m35 0q0-40 29-69t69-29q9 0 21 2l-41 16 0 1q-28 13-40 42-6 14-6 28 0 15 6 30 12 30 40 42 15 7 31 6 13 0 27-5l0 1 49-20q-29 52-87 52-40 0-69-29t-29-70z m710-333q29-52 87-52 40 0 69 29t29 70q0 40-29 69t-70 29q-14 0-21-2l40-16q30-12 43-42 7-15 7-30 0-14-6-29-12-31-42-43-15-6-30-6-14 0-29 6-8 3-25 10t-25 10z m270 335q0-49 35-84t84-35q50 0 85 35t35 84-35 84-85 35q-49 0-84-35t-35-84z m25 1q0-40 28-68t68-28q39 0 67 28t28 68q0 39-28 67t-67 28q-40 0-68-28t-28-67z" horiz-adv-x="1312" />
<glyph glyph-name="cloudapp" unicode="&#x63;" d="M0 202q0 104 74 178t177 74l1-1q0 3-1 7t-1 6q0 118 83 201t200 83q103 0 181-66t96-166l17 0q117 0 200-83t83-201-83-201-200-83q-8 0-12 1l0-1-578 0 0 1q-99 5-168 78t-69 173z" horiz-adv-x="1108" />
<glyph glyph-name="ebay" unicode="&#x65;" d="M0 285q0 31 5 54t22 47 47 39 84 24 129 10q88 0 148-13 39-8 58-18l0-161-293 0q0-21 2-34t9-31 27-27 50-9q85 0 85 61l121 0 0-89q-27-13-56-19-68-15-150-15-92 0-151 13t-87 39-38 56-10 75z m198 34l178 0q0 18-2 27t-9 24-28 22-54 7q-31 0-51-8t-27-23-9-24-2-25z m293-182l0 89 78 0q-1-51-74-87-2-2-4-2z m0 0q2 0 4 2 73 36 74 87l-78 0 0 39 81 0q1 12 1 23 0 45-13 76-16 39-69 62l0 183 107 0 0-203 2 0q31 44 88 44 43 0 69-26-40-29-40-102 0-104 76-122-1-31-6-54t-16-47-33-37-54-13q-64 0-91 50l-1 0 0-42-103 0 0 79z m0 128l0 161q53-23 69-62 13-31 13-76 0-11-1-23l-81 0z m107-11q0-77 9-108t36-31q28 0 37 31t9 108l0 5q0 35-1 52t-5 37-14 29-27 8q-16 0-26-9t-13-30-5-38-1-54z m119 68q0 73 40 102 17-18 26-53t10-56 0-64l0-52q-76 18-76 122z m8 159q0 69 40 94 34 26 101 26 4 0 49-3l107-218 0-102q0-14 2-39t2-34l-100 0-5 52-2 0q-33-58-100-58-18 0-26 1l0 52q0 43-1 64t-10 56-26 53q38 29 135 29l24 0 0 31q0 29-9 43t-36 14q-26 0-33-16t-7-45l-107 0z m97-154q0-62 41-62 13 0 23 5t16 14 10 18 5 24 2 24 0 24-1 20q-4 0-17-1t-17-1l-14-2t-14-3-11-5-10-8-7-11-5-16-1-20z m67 323l154 0 100-232 109 232 143 0-189-359 0-190-141 0 0 190-43 89 0 91q0 55-22 87t-86 41z m26-52q64-9 86-41t22-87l0-91z" horiz-adv-x="1395" />
<glyph glyph-name="facebook-3" unicode="&#x66;" d="M0 313l0 191 154 0 0 96q0 104 68 177t164 73l153 0 0-191-153 0q-15 0-27-17t-12-41l0-98 192 0 0-191-192 0 0-463-192 0 0 463-154 0z" horiz-adv-x="538" />
<glyph glyph-name="github-2" unicode="&#x67;" d="M0 3q0-63 62-108t150-45 151 45 63 108q0 64-63 109t-151 45q-1 0-3-1t-3-1q-24 22-24 48t24 54q71 4 120 55t49 121q0 28-7 50 28 5 44 14l0 115q-48-32-109-32l-7 0q-46 31-101 31-75 0-128-52t-53-126q0-47 24-87t64-64q-28-36-28-74 0-36 26-75-46-21-73-55t-27-75z m121 432q0 33 22 57t51 24q30 0 51-24t21-57-21-57-51-24q-29 0-51 24t-22 57z m3-432q0 27 26 46t63 19 63-19 26-46q0-26-26-45t-63-19-63 19-26 45z m331 766q0 34 24 58t58 24 58-24 24-58-24-58-58-24-58 24-24 58z m19-647l0 479 134 0 0-479-134 0z m181 377l55 0 0-285q4-30 20-52t35-32 38-16 31-7l20 0q27 0 48 8 23 8 30 16l7 9 2 99q-42-13-65-13-5 0-9 1-23 3-27 16l-4 13q0 3-1 4l0 238 91 0 0 102-91 0 0 93-123 0 0-93-55 0 0-102z" horiz-adv-x="939" />
<glyph glyph-name="googleplay" unicode="&#xe97d;" d="M0-146l0 992 501-496z m0 0l501 496 134-133-202-117-433-250 0 4z m0 992l0 4 433-250 202-117-134-133z m501-496l134 133 231-133-231-133z" horiz-adv-x="866" />
<glyph glyph-name="itunes" unicode="&#x69;" d="M0 350q0 136 67 251t182 182 251 67 251-67 182-182 67-251-67-251-182-182-251-67-251 67-182 182-67 251z m100 0q0-166 117-283t283-117 283 117 117 283-117 283-283 117-283-117-117-283z m183-176q0-31 22-53t53-22q33 0 57 24t24 57l0 269 200 37 0-208q-15 5-28 5-33 0-57-24t-24-57q0-31 21-53t52-22 56 23 26 54l0 394-290-50 0-300q-15 5-28 5-34 0-58-24t-24-57z" horiz-adv-x="1000" />
<glyph glyph-name="plurk" unicode="&#x6a;" d="M0-150l0 1000 764 0 0-817-571 3 0-186-193 0z m191 359l399 0 0 450-399 0 0-450z" horiz-adv-x="764" />
<glyph glyph-name="songkick" unicode="&#x6b;" d="M0 283l0 134t3 59 7 62 14 53 24 56 36 47 51 48q146 110 356 110l16 0 0-777 124 0 0 208q7-11 39-64t51-80q29-40 64-53t92-13l36 0 0 118q-45 0-63 7t-42 41q-14 18-37 57t-26 44l171 238-148 0-136-189 0 453q135-22 238-100 29-22 51-48t36-47 24-56 14-53 7-62 3-59l0-134t-3-59-7-62-14-53-24-56-36-47-51-48q-146-110-367-110t-367 110q-29 22-51 48t-36 47-24 56-14 53-7 62-3 59z m81-149q66-67 192-67 80 0 138 41t58 118q0 51-18 85t-45 46-59 20-59 9-45 12-18 30q0 47 70 46 57 0 87-29l78 78q-60 60-170 60-78 0-132-42t-54-118q0-51 21-84t52-45 63-17 60-9 37-14q10-11 10-30 0-46-72-46-77 0-113 36z" horiz-adv-x="1000" />
<glyph glyph-name="gmail" unicode="&#x6d;" d="M0-97l0 897 185 0 9-8 825 0 9 8 174 0 0-900-171 0 0 7-855 0 0-4-176 0z m176 132l0-80 855 0 0 74-345 259-79-65-86 70z m0 60l307 229-307 252 0-481z m83 641l348-298 347 298-695 0z m465-417l307-230 0 484z" horiz-adv-x="1202" />
<glyph glyph-name="pinboard" unicode="&#x6e;" d="M0 527l316 323 0-123 301-277 187 46-195-208 391-438-444 392-188-192 30 169-255 316z" horiz-adv-x="1000" />
<glyph glyph-name="openid" unicode="&#x6f;" d="M0 203q-1 63 25 117t67 89 92 63 101 43 93 26 68 13l26 3 0-123q-57-4-105-20t-78-37-53-46-35-48-19-43-8-31l-2-12q-3-15-3-30 0-22 7-42 12-34 38-58t59-45 68-33 64-22 47-13l19-3 0-103q-97 10-176 35t-127 57-83 68-51 71-25 62-10 45z m510-353l0 902 142 98 0-922z m176 591l5 0q38-1 77-15 42-16 64-31l21-16-83-34 313-78 0 245-107-61q-40 43-113 69t-126 31l-52 5 0-115z" horiz-adv-x="1083" />
<glyph glyph-name="quora" unicode="&#x71;" d="M0 399q0 122 60 226t162 165 223 61q184 0 315-132t131-319q0-119-57-221t-154-163q1-2 4-7t12-16 21-22 33-22 45-17l0-76q-36-7-67-7-50 0-85 18-56 29-91 94-48-13-105-13-120 0-223 61t-162 164-60 226z m221-59q0-116 67-199t161-83q26 0 52 8-2 3-6 9t-15 19-24 24-31 20-37 10l0 88q10 1 20 1 119 0 203-90 63 81 63 194l0 116q0 116-67 199t-161 83-161-83-67-199l0-116z" horiz-adv-x="889" />
<glyph glyph-name="soundcloud" unicode="&#x73;" d="M0 221q0 16 4 44t10 31q6-3 11-33t5-43q0-14-5-43t-11-32q-13 7-13 74z m64 0q0 25 5 74t6 61q0 6 6 6 4 0 6-6 12-129 12-135 0-24-6-71t-7-59q-2-7-6-7-6 0-6 7-1 11-6 59t-5 72z m81 0q0 24 5 74t5 55q0 9 7 9 8 0 8-9 11-113 11-128t-11-136q0-8-8-8-7 0-7 8 0 7-5 59t-5 78z m92 0q0 38 2 81t4 95 4 82q0 10 9 10 10 0 10-10 1-16 6-112t5-146q0-26-5-77t-5-58q0-10-10-10-9 0-9 10-9 132-9 135z m94 0q0 55 3 160t4 129q2 12 12 12t12-12q1-32 5-133t4-155q0-25-4-72t-5-61q-2-12-12-12t-12 12q0 11-4 59t-4 74z m95 0q0 40 1 85t3 100 3 85q2 15 14 15t14-15q1-30 3-85t3-100 1-85q0-2-6-131l0 1q-2-15-14-15t-14 14q-6 129-6 131z m95-1q0 3 6 351 2 18 16 18t16-18q6-348 6-351 0-1-6-127-2-17-16-17t-16 17q-6 126-6 127z m80 213q0 83 1 156-1 10 13 18t33 12 35 6 25 2q97 0 169-73t80-179q28 13 55 13 58 0 100-46t42-111-42-111-100-46l-393 0q-6 0-11 6t-5 13q0 55-1 156t-1 183z" horiz-adv-x="1152" />
<glyph glyph-name="tumblr-1" unicode="&#x74;" d="M0 440l0 142q60 20 101 55 41 33 67 86 26 51 35 127l143 0 0-253 237 0 0-157-237 0 0-256q0-86 9-112 9-24 34-39 34-20 76-20 77 0 151 49l0-157q-63-31-116-43-52-12-112-12-68 0-122 17-55 19-89 50-36 31-52 68-14 34-14 105l0 350-111 0z" horiz-adv-x="616" />
<glyph glyph-name="eventasaurus" unicode="&#x76;" d="M0 9l0 678q0 66 43 115t108 49l697 0q70 0 117-38t47-107l0-59q-74 14-111 20-53 7-54 7-10 3-30 10t-34 11-33 4q-62 0-132-47-34-3-96-7t-112-9-96-14l-2 0-1-1-4 0-1-1-1 0q-72-14-87-26-18-15-20-71l0-165-3-18 526-13 80 27q-44-79-70-132l-106-47-406-7q-3-3-10-4t-11-5q4-26 7-39 12-52 112-59 206-13 335-13 38 0 120 20t127 20q65 0 111-29l0-54q0-155-154-155l-723 0q-61 0-98 48t-37 111z m690 546q0 14 10 25t24 11 25-11 11-25-11-24-25-10-24 10-10 24z" horiz-adv-x="1011" />
<glyph glyph-name="wordpress-1" unicode="&#x77;" d="M0 350q0 136 67 251t182 182 251 67 251-67 182-182 67-251-67-251-182-182-251-67-251 67-182 182-67 251z m39 0q0-135 72-247t189-168l-220 603q-40-89-40-188z m75 253l30 0q48 0 123 6 12 1 18-8t2-19-16-11l-53-5 168-499 101 302-72 197q-24 3-48 5-12 1-16 11t2 19 18 8l121-6q49 0 123 6 12 1 18-8t2-19-16-11l-52-5 166-496 46 154q36 117 36 149 0 64-39 128-2 3-13 21t-14 24-9 19-8 24-2 21q0 33 23 58t56 25q1 0 3-1t3-1q-131 121-312 121-119 0-221-56t-165-152z m256-696q62-18 130-18 80 0 153 26l-3 6-142 389z m362 44q105 61 167 168t62 232q0 120-56 221 3-21 3-47 0-63-35-165z" horiz-adv-x="1000" />
<glyph glyph-name="yelp" unicode="&#x79;" d="M0 262l0-13q0-43 6-69 5-18 19-26t29-3l204 63q22 7 31 26 5 10 5 20t-5 19q-9 19-32 26l-204 82q-14 3-28-8t-17-31q-8-36-9-88z m87 477q-5 8-5 16 0 9 6 18 12 17 38 27 81 31 171 46l5 0q45 0 49-38 25-313 25-393 0-33-27-40-6-2-12-2-21 0-37 25-148 232-213 341z m69-765l139 166q19 21 38 21 8 0 16-3 25-11 25-45 0-5-1-10l0-221q-2-14-17-22-9-5-18-5-8 0-16 3-36 6-85 26t-73 38q-18 14-18 30 0 11 10 23z m294 337q-6 12-6 23 0 17 15 33l130 179q7 8 20 8 3 0 7-1 17-2 29-18 25-26 53-71t37-74q3-8 3-15 0-9-4-16-8-13-23-16l-209-53q-8-2-16-2-23 0-36 22z m12-125q-9-12-9-24 0-16 13-32l114-190q7-9 24-9l3 0q19 1 33 15 27 24 56 63t42 70q4 11 4 21 0 7-3 13-5 14-19 19l-205 70q-10 4-19 4-21 0-33-19z" horiz-adv-x="741" />
<glyph glyph-name="intensedebate" unicode="&#x7b;" d="M0 509q174 33 208 71 27 30 45 91 18-23 23-49t1-40l-5-13q-6-13-11-21t-8-14-10-11-10-9-16-11-21-14q-35-27-34-63t31-55q26-16 51 6t53 78q12 25 19 66t20 73 47 59q20 16 46 19t50 1 52 0 60 24 67 65q5 6 14 16t38 29 59 28 74-1 86-45q-48 21-90 21t-68-15-44-33-26-33l-7-15q-15-37-29-62t-24-39-25-23-24-12-32-9-38-10q-43-13-50-54-6-36 22-53 32-18 82 14 37 24 60 50t31 44 28 40 52 37q43 21 82 29t83 8 67 4q197 32 246 114 48 79 49 130 17-58 12-104t-27-81-44-57-41-34l-18-11q-77-40-129-56t-84-21-62-22q-103-55-52-155 21-41 62-45t78 30q6 5 14 14t23 39 16 61q20-56 16-97t-21-64l-15-22q-36-38-61-54t-63-19-90 15q-86 21-120 21t-62-18q-28-16-43-43t-2-49q14-25 34-28t64 22q39 23 66 30t68 9q87 2 139-38 37-24 74-57-40 24-79 31t-66-1-49-18-32-22l-10-10q-45-51-76-72t-53-21-59 15q-10 4-40 17t-42 16l0 110q0 121-92 186-59 40-134 40-76 0-134-39-20 29-51 33l0 75q0 31-22 53t-53 22l-18 0z m127-564l0 162q0 65 19 99 40 71 134 71 69 0 111-44t42-110l0-135-202 0 0-67q0-48 50-48 45 0 50 49l102 0q0-62-41-105-43-43-111-43-94 0-134 71-19 34-19 99z m103 121l100 0 0 56q0 56-50 56t-50-56l0-56z m262-199q11 36 11 71 0 11-3 20 24-4 34-5 62-6 85-46 2-3 5-9t7-23-1-31q-31 24-66 30t-54-1z" horiz-adv-x="1286" />
<glyph glyph-name="eventbrite" unicode="&#x7c;" d="M1-27q3 31 12 66 11 45 72 351t71 350q12 52 24 73t39 30 87 9l241 0q59 0 135-1t116-1q41 0 50-45 10-48-23-92-30-40-81-40l-401 0-50-233 352-3q44 0 54-45t-21-84q-27-33-70-33l-360 0-48-248 432 0q64 0 77-44t-17-88-68-44l-553 0q-30 0-48 17t-22 46-1 60z" horiz-adv-x="851" />
<glyph glyph-name="posterous" unicode="&#x7e;" d="M0 835l100 0 8-121 10 0 5 3q79 133 246 133 130 0 213-99t83-254q0-93-27-167t-73-118-101-67-117-23q-69 0-126 29t-87 80l-2 3-11 0-3-7 0-378-113 0 0 761q0 88-6 224z m119-413q0-31 6-55 19-70 74-113t126-43q101 0 162 77t61 205q0 119-61 194t-157 75q-72 0-128-46t-74-118q-9-33-9-53l0-123z" horiz-adv-x="664" />
<glyph glyph-name="pilcrow" unicode="&#xb6;" d="M688 797l0-112-112 0 0-781-112 0 0 781-111 0 0-781-112 0 0 447q-92 0-158 65t-66 158 66 158 158 66l447 0z" horiz-adv-x="705" />
<glyph glyph-name="opentable" unicode="&#xc7;" d="M0 384l0 51q0 38 87 65t211 27 211-27 87-65l0-51q-1-38-88-65t-210-27-210 27-88 65z m287 243l0 27q2 19 64 33t149 14 149-14 64-33l1 0 0-27-1 0q-2-20-64-34t-149-14-149 14-64 34z m211-494l0 64q4 56 117 95t271 39 271-39 117-95l0-64q-3-55-116-94t-271-39-271 39-117 95z m228 341l0 42q2 29 76 49t176 20 176-20 76-49l0-42q0-29-74-50t-178-21-178 21-74 50z" horiz-adv-x="1273" />
<glyph glyph-name="cart" unicode="&#xc9;" d="M0 704q0 20 13 33t33 13l235 0q16 0 29-10t17-26l24-98 674 0 7 21q10 32 43 32 9 0 13-2 15-4 24-16t9-27q0-5-2-13l-118-393q-4-15-16-24t-27-9l-559 0q-16 0-29 10t-17 25l-108 438-199 0q-19 0-33 13t-14 32z m372-178l62-248 489 0 2 9 72 239-625 0z m42-484q0 38 28 65t66 27 65-27 27-65-27-65-65-27-66 27-28 65z m65 406l166 0 0-92-146 0z m245-92l1 92 162 0-24-92-139 0z m37-314q0 38 28 65t66 27 65-27 27-65-27-65-65-27-66 27-28 65z" horiz-adv-x="1120" />
<glyph glyph-name="print-3" unicode="&#xd1;" d="M0-50l0 333 116 129 85 0 0-64-56 0-80-89 0-245 795 0 0 245-80 89-56 0 0 64 85 0 115-129 0-333-924 0z m201 319l0 330 151 151 372 0 0-481-523 0z m60 61l403 0 0 360-252 0 0-151-151 0 0-209z" horiz-adv-x="924" />
<glyph glyph-name="angellist" unicode="&#xd6;" d="M0 136q0 63 28 98 23 31 74 45-16 40-16 59 0 33 35 70 37 35 69 35 17 0 40-9-48 137-69 208-24 81-24 115 0 48 24 75 25 28 67 28 72 0 173-295l17-49q6 15 12 33 100 292 180 292 40 0 63-27 24-27 24-70 0-28-24-113-21-73-66-200 57-14 82-54 27-43 27-133 0-178-106-291-108-113-274-113-66 0-127 24-59 21-107 66-51 48-76 99-26 54-26 107z m65 5q0-25 14-59 13-32 39-67 41-53 97-81 57-28 129-28 129 0 217 97 87 96 87 243 0 46-6 71-5 22-19 34-27 23-106 40-79 18-168 18-22 0-28-6-7-3-7-20 0-41 46-58 50-21 165-21l28 0q16 0 23-11 8-8 11-31-17-17-55-31-36-13-53-26-40-29-64-69-23-39-23-74 0-21 10-51 11-33 11-43l0-6-4-15q-44 3-64 41-17 32-19 82-3-1-12-1l-11 0q1-5 1-12 0-30-23-51t-54-21q-47 0-95 45-48 46-48 90 0 8 3 16 1 7 16 22 25-31 34-43 42-59 76-59 9 0 17 6 6 6 6 10 0 8-12 29-8 15-37 53-28 36-45 50-15 14-22 14-19 0-37-22t-18-55z m90 191q0-13 16-45 14-27 45-68 31-40 56-62 24-20 36-20 7 0 14 7 7 8 7 16 0 12-18 58-21 51-46 92-22 35-39 49-16 15-31 15-11 0-25-15-15-15-15-27z m45 432q0-34 24-107 22-71 66-190 10 6 28 6 1 0 7-1t11-1q4 0 26-2l-69 200q-28 80-44 104-13 21-26 21-9 0-15-8-7-9-7-23z m166-510q9-23 19-50 20 23 40 38-5 1-15 3t-15 3q-20 4-29 7z m105 204l67-12q45 124 69 199 25 81 25 96 0 16-7 25-4 7-15 7-14 0-31-27-19-29-43-101z" horiz-adv-x="716" />
<glyph glyph-name="instagram" unicode="&#xdc;" d="M0-50l0 800q0 41 30 71t71 30l800 0q41 0 71-30t30-71l0-800q0-41-30-71t-71-30l-800 0q-41 0-71 30t-30 71z m200 400q0-124 88-212t212-88 212 88 88 212-88 212-212 88-212-88-88-212z m100 0q0 82 59 141t141 59 141-59 59-141-59-141-141-59-141 59-59 141z" horiz-adv-x="1000" />
<glyph glyph-name="dwolla" unicode="&#xe0;" d="M0 4q0 76 57 112 29 19 54 29 114 49 122 54-21 31-54 68-51 60-60 71-109 132-94 247 7 55 42 91 13 14 42 32 37 21 45 25 5 2 23 10t30 13l47 21 69 30q58 25 86 40 20 11 25-6 0-11-27-25-61-40-64-114-1-29 5-58t13-47 26-46 27-38 35-40 32-36q6-7 29-33t33-38 28-38 26-46 16-49 8-59q0-38-13-68-12-32-29-52t-48-40q-35-21-53-30-23-12-61-27-16-6-36-15t-23-10l-89-39-36-18q-32-16-50-21-85-21-133 24t-48 123z" horiz-adv-x="617" />
<glyph glyph-name="appnet" unicode="&#xe1;" d="M2 414q10 159 75 266 49 80 96 114t139 50q30 5 57 6t51-4 44-12 39-20 34-26 30-32 27-35 24-39 21-40 21-41q7-14 14-30t15-36 13-31q8 48 57 188t68 145q91 21 145 0 4-2 9-8t7-8q-1-18-6-39t-9-33-13-37-12-31l-160-439q-7-34 19-90t68-93 74-22q10 5 18 21t14 21q18 15 71 16t67-19q16-29 11-63t-31-66-60-57-74-37-74-5q-29 6-54 19t-41 26-34 37-28 39-27 45-26 44q-4-2-6-4-24-58-81-107t-127-75-150-20-145 54q-85 62-131 204t-37 300z m153 13q-13-108 9-211t73-141q28-21 56-31t52-12 49 10 43 21 41 35 36 40 33 46 28 43 25 42q5 9 8 14-38 161-64 223-73 173-202 155-56-8-81-22t-50-49q-41-55-54-163z" horiz-adv-x="1126" />
<glyph glyph-name="statusnet" unicode="&#xe2;" d="M0 432q0 122 93 210 58 55 134 75t153-2 138-85q44-46 63-107t15-116-24-103q-19-41-3-93t40-89 51-69 27-33l-11 9q-10 10-22 21t-31 26-38 27-43 25-45 19-45 8-43-7q-47-19-104-20t-117 22-103 69q-86 91-86 213z m132 20q-9-69 34-125t112-65 124 34 64 112-33 124-111 64-125-33-65-111z m478 294q21 59 74 88t113 9q58-18 87-72t9-116q-24-72-114-104-31-11-56-34t-35-38-23-41q22 94-24 159-55 80-31 149z m38-495q2 92 63 155t152 63q89 0 152-62t63-157q0-110-110-195-38-29-62-71t-31-68-13-67q-4 40-10 67t-30 70-65 74q-111 83-110 191z m38 472q-11-27 1-55t39-39 54 0 38 38q11 28 0 55t-38 38-55 0-39-38z m67-515q19-46 66-66 46-19 92 1t65 66 0 92-65 66q-46 19-92 0t-65-65q-19-47-1-93z" horiz-adv-x="1078" />
<glyph glyph-name="acrobat" unicode="&#xe3;" d="M0-108q0 51 61 107t123 89l15-22q-44-32-91-83t-59-90q87 27 265 379 65 131 103 261-33 107-33 202 0 115 47 115 23 0 34-2t21-13 10-34q0-15-3-28l-27 1q-2 26-17 41-12-20-12-69 0-38 9-94 3 18 9 54t10 54l26-3q-2-152-14-218 36-107 87-174t143-119q68 7 116 7 178 0 178-70 0-11-5-24l-3 1q-5-42-67-42-104 0-240 72-220-22-389-82-147-257-235-257-7 0-14 2t-13 5-14 7-12 7q-8 8-8 22z m318 255q134 54 298 85-103 73-164 209-36-121-134-294z m486 50q90-35 142-35 15 0 22 3 0 32-145 32l-19 0z" horiz-adv-x="999" />
<glyph glyph-name="drupal" unicode="&#xe4;" d="M0 282q0 70 21 133t49 103 65 75 57 48 38 24q10 5 30 15t31 16 29 17 35 25q42 34 50 113 73-88 106-110 25-17 74-39t74-37q19-11 36-24t54-49 63-76 47-105 21-137q0-186-128-305t-307-119q-116 0-217 56t-163 156-62 221z m190-151q-2-63 42-93 31-21 94-21 41 0 98 30t105 59 71 28q23-1 78-56t71-56q20-1 34 9t32 36q33 49 33 117 0 29-15 55t-47 26q-22 0-92-47t-94-48q-22 0-61 28t-89 56-99 28q-65-1-112-45t-48-102z m205-180q-12-10 0-20 46-42 165-31 23 2 48 12t37 18 17 12 4 16q-3 12-14 3-41-32-124-32-75 0-110 28-3 2-8 2t-14-7z m90 52q7-8 28 11 2 1 8 6t8 7 8 5 10 5 12 2 16 1q16 0 26-5t13-8 8-13q5-10 8-12t8 1q12 7 7 20-9 26-22 34-12 9-43 9-26 0-41-6-17-7-44-32-15-12-7-25z" horiz-adv-x="875" />
<glyph glyph-name="buffer" unicode="&#xe5;" d="M0 88q11 15 32 26t49 20 41 16q19 0 34-5t34-15 25-13q47-21 260-119 19-4 36 0t40 18 24 15q20 9 77 35t88 40q4 2 42 21t61 24q13 2 28-1t24-8 23-13 18-11 16-6 19-8 11-11q3-4 4-14-10-13-31-24t-51-22-40-16q-43-20-129-62t-129-62q-7-3-21-12t-24-13-26-11-28-7-30 2l-264 123q-6 3-32 14t-52 22-54 24-47 24-22 17q-4 4-4 13z m0 268q11 15 32 25t50 20 42 15q19 0 34-5t35-15 26-14q42-19 127-58t128-59q19-5 37-1t39 17 25 15q68 32 160 72 11 5 32 17t39 20 36 11q16 3 32-1t38-17 23-13q5-3 16-7t18-8 12-11q3-5 4-14-10-14-32-26t-53-23-41-16q-48-23-136-65t-123-59q-7-3-26-14t-29-15-33-10-36 0q-214 101-260 122-6 3-44 19t-70 30-62 30-34 23q-4 4-4 14z m0 267q10 15 32 27t53 23 41 16l348 162q30 0 54-7t57-26 40-22q39-18 117-55t117-55q4-2 37-15t55-24 27-20q3-4 4-13-9-13-26-23t-44-19-35-14q-47-22-140-67t-139-67q-6-3-20-11t-23-13-25-11-27-6-28 1q-245 114-256 119-4 2-63 28t-102 47-48 30q-4 4-4 13z" horiz-adv-x="979" />
<glyph glyph-name="pocket" unicode="&#xe7;" d="M2 520q-8 215 12 270 4 9 10 16t14 13 14 10 18 10 17 9q136 0 386 2t329 2l94 0t55-1 57-3 45-6 33-10q16-9 27-24t17-30 8-40 2-42-1-50-1-50q0-207-23-327t-96-213q-70-88-165-140t-193-63-200 11-187 74-151 133-96 182q-15 52-23 267z m232 2q-26-28 15-90t104-124q2-2 40-40t54-52 47-36 57-29q11-3 23-3t20 1 20 7 16 8 16 12 12 11 12 11l3 3q9 9 61 56t86 81 68 79 35 76q-15 40-38 56t-51 9-56-26-59-48-56-56-50-51-37-33q-27 16-73 60t-82 82-74 64-55 15q-25-15-56-41z" horiz-adv-x="1136" />
<glyph glyph-name="bitbucket" unicode="&#xe9;" d="M0 706q0 60 127 102t306 42q180 0 307-42t127-102q0-12-72-440-9-46-111-89t-250-43-250 43-110 89q-73 414-73 440z m107-581l0 4q0 17 15 17 6 0 12-5 47-37 122-58t126-23l51-3q8 0 22 1t53 5 75 13 79 25 73 41l11 5q16 0 16-17 0-2-1-4-22-121-30-161-11-49-96-82t-200-33-200 33-95 82q-19 95-31 161z m49 596q0-24 82-42t196-18q115 0 197 17t82 41q0 25-82 43t-197 18-196-17-81-42z m139-353q0-57 41-98t98-41 98 41 41 98-41 98-98 41-98-41-41-98z m69 0q0-28 20-49t49-21 49 21 20 49-20 49-49 21-49-21-20-49z" horiz-adv-x="866" />
<glyph glyph-name="info" unicode="&#x2139;" d="M352 850q48 0 74-27t26-69q0-50-39-88t-95-38q-48 0-74 26t-24 72q0 46 35 85t97 39z m-206-1000q-100 0-54 178l60 254q14 56 0 56-12 0-54-18t-72-38l-26 44q90 78 189 126t151 48q78 0 36-162l-70-266q-16-64 6-64 44 0 118 60l30-40q-84-86-175-132t-139-46z" horiz-adv-x="460" />
<glyph glyph-name="info-1" unicode="&#xe866;" d="M74 351l-56 0 0 111 335 0 0-390q0-24 17-40t40-16l55 0 0-112-446 0 0 112 56 0q23 0 40 16t17 40l0 223q0 24-16 40t-40 16z m56 335q0 112 112 112t112-112-112-112-112 112z" horiz-adv-x="482" />
<glyph glyph-name="left" unicode="&#x2190;" d="M240 100l-240 250 240 250 0-160 740 0 0-178-740 0 0-162z" horiz-adv-x="980" />
<glyph glyph-name="left-2" unicode="&#xe881;" d="M464-97l-446 447 446 446 159-158-177-177 465 0 0-223-465 0 177-176z" horiz-adv-x="928" />
<glyph glyph-name="left-5" unicode="&#xec0f;" d="M0 353l390 391q19 18 43 18 25 0 43-18t18-43-18-44l-243-243 642 0q26 0 44-18t18-43-18-43-44-18l-642 0 243-244q18-18 18-43t-18-43-43-18-43 18z" horiz-adv-x="937.988" />
<glyph glyph-name="left-1" unicode="&#xe83d;" d="M857 350l0-71q0-30-18-50t-47-21l-393 0 163-164q21-20 21-50t-21-50l-42-42q-21-21-50-21t-51 21l-363 364q-21 21-21 50t21 51l363 363q21 21 51 21 29 0 50-21l42-41q21-21 21-51t-21-51l-163-163 393 0q29 0 47-21t18-50z" horiz-adv-x="857.143" />
<glyph glyph-name="up-6" unicode="&#xec0d;" d="M0 354q0 26 18 44l390 390 391-390q18-18 18-44 0-25-18-43t-43-18-43 18l-244 243 0-642q0-25-18-43t-43-18q-25 0-43 18t-18 43l0 642-243-243q-18-18-43-18t-43 18q-18 18-18 43z" horiz-adv-x="817.383" />
<glyph glyph-name="up-4" unicode="&#xe91c;" d="M213 366l-213 0 308 306 310-309-213 0 3-336-195 0 0 339z" horiz-adv-x="618" />
<glyph glyph-name="up-2" unicode="&#xe87f;" d="M18 352l446 445 447-445-159-159-176 177 0-466-223 0 0 466-177-177z" horiz-adv-x="928" />
<glyph glyph-name="up-1" unicode="&#xe83b;" d="M899 308q0-28-21-50l-42-42q-21-21-51-21t-50 21l-164 163 0-393q0-29-21-47t-50-18l-71 0q-30 0-50 18t-21 47l0 393-164-163q-20-21-50-21t-50 21l-42 42q-21 21-21 50 0 30 21 51l363 363q20 21 50 21t51-21l363-363q21-22 21-51z" horiz-adv-x="928.571" />
<glyph glyph-name="up" unicode="&#x2191;" d="M500 602l-162 0 0-742-176 0 0 742-162 0 250 238z" horiz-adv-x="500" />
<glyph glyph-name="right-5" unicode="&#xec0e;" d="M0 347q0 26 18 43t43 17l642 0-243 244q-19 18-19 43t19 42q18 19 42 19t44-19l390-390-390-390q-20-19-44-19t-42 19-19 44 19 43l243 243-642 0q-25 0-43 18t-18 43z" horiz-adv-x="937.988" />
<glyph glyph-name="right-1" unicode="&#xe83c;" d="M821 314q0-30-21-51l-363-363q-22-21-51-21-28 0-50 21l-42 42q-21 21-21 51t21 51l163 163-393 0q-29 0-47 21t-18 50l0 71q0 30 18 50t47 21l393 0-163 164q-21 20-21 50t21 50l42 42q21 21 50 21 30 0 51-21l363-363q21-20 21-50z" horiz-adv-x="857.143" />
<glyph glyph-name="right-2" unicode="&#xe880;" d="M464 797l447-446-447-447-157 159 175 176-464 0 0 224 464 0-175 176z" horiz-adv-x="928" />
<glyph glyph-name="right" unicode="&#x2192;" d="M742 100l0 162-742 0 0 178 742 0 0 160 238-250z" horiz-adv-x="980" />
<glyph glyph-name="down-4" unicode="&#xe910;" d="M405 334l213 0-308-306-310 309 213 0-3 336 195 0 0-339z" horiz-adv-x="618" />
<glyph glyph-name="down" unicode="&#x2193;" d="M500 100l-250-240-250 240 162 0 0 740 176 0 0-740 162 0z" horiz-adv-x="500" />
<glyph glyph-name="down-6" unicode="&#xec10;" d="M0 283q0 25 18 43t43 18 43-18l243-243 0 641q0 26 18 44t43 18 43-18 18-44l0-641 244 243q18 18 43 18t43-18q18-18 18-43t-18-43l-390-390-391 390q-18 19-18 43z" horiz-adv-x="817.383" />
<glyph glyph-name="down-1" unicode="&#xe83e;" d="M899 386q0-30-21-50l-363-364q-22-21-51-21-30 0-50 21l-363 364q-21 20-21 50t21 51l41 42q22 21 51 21 30 0 50-21l164-164 0 393q0 29 21 50t50 21l71 0q29 0 50-21t21-50l0-393 164 164q21 21 50 21t51-21l42-42q21-22 21-51z" horiz-adv-x="928.571" />
<glyph glyph-name="down-2" unicode="&#xe882;" d="M911 351l-447-447-446 447 158 158 177-176 0 464 223 0 0-464 176 175z" horiz-adv-x="928" />
<glyph glyph-name="back-alt" unicode="&#xe707;" d="M200 350l0-90-200 160 200 170 0-100 550 0q40 0 70-29t30-71l0-280-140 0 0 240-510 0z" horiz-adv-x="850" />
<glyph glyph-name="level-down" unicode="&#x21b3;" d="M100 200q-42 0-71 30t-29 70l0 350 140 0 0-310 364 0 0 150 240-220-240-220 0 150-404 0z" horiz-adv-x="744" />
<glyph glyph-name="undo" unicode="&#x21b6;" d="M804 694q107-107 107-262 0-150-107-257l-84-84-79 80 84 84q74 74 74 177 0 108-74 183-72 72-180 72t-180-72l-153-155 141 0 0-109-335 0 0 334 112 0 0-147 156 156q103 103 259 103t259-103z m-271-790l-79 79 79 80 79-80z" horiz-adv-x="928" />
<glyph glyph-name="exchange" unicode="&#x21c4;" d="M911 127l-670 0 0-111-223 168 223 167 0-112 670 0 0-112z m-893 335l0 112 670 0 0 111 223-166-223-168 0 111-670 0z" horiz-adv-x="928" />
<glyph glyph-name="switch" unicode="&#xead7;" d="M700 592l0-140-500 0 0-90-200 160 200 170 0-100 500 0z m300-420l-200-160 0 90-500 0 0 140 500 0 0 100z" horiz-adv-x="1000" />
<glyph glyph-name="left-fat" unicode="&#xec22;" d="M0 350q0 9 5 18t10 13l5 4 582 362q32 21 54 8t23-54l0-146 204 0q21 0 37-16t16-37l0-305q0-21-16-37t-37-16l-204 0 0-147q0-40-23-53t-54 8l-582 362q-20 15-20 35z" horiz-adv-x="937.5" />
<glyph glyph-name="up-fat" unicode="&#xec23;" d="M5 162q-13 23 8 54l363 582q15 20 35 20 9 0 18-5t13-10l4-5 363-582q21-32 8-54t-53-23l-147 0 0-204q0-21-15-37t-37-16l-305 0q-21 0-37 16t-16 37l0 204-146 0q-40 0-53 23z" horiz-adv-x="819.336" />
<glyph glyph-name="down-fat" unicode="&#xec21;" d="M5 538q13 22 53 22l147 0 0 205q0 21 15 37t37 16l305 0q21 0 37-16t16-37l0-205 146 0q40 0 53-22t-8-54l-363-582q-1-2-5-6t-12-9-18-6-18 5-13 10l-4 5-363 582q-21 32-8 54z" horiz-adv-x="820.313" />
<glyph glyph-name="left-bold-1" unicode="&#xec0b;" d="M0 365l527 381 0-205 410 0 0-351-410 0 0-235z" horiz-adv-x="937.5" />
<glyph glyph-name="up-bold-1" unicode="&#xec20;" d="M0 282l397 536 394-536-216 0 0-401-359 0 0 401-216 0z" horiz-adv-x="791.016" />
<glyph glyph-name="right-bold-1" unicode="&#xec1f;" d="M0 170l0 359 401 0 0 216 536-397-536-394 0 216-401 0z" horiz-adv-x="937.5" />
<glyph glyph-name="down-bold" unicode="&#xec0c;" d="M0 418l215 0 0 401 360 0 0-401 215 0-396-536z" horiz-adv-x="790.527" />
<glyph glyph-name="infinity" unicode="&#x221e;" d="M0 350q0 93 66 159t159 66 159-66l73-69 73 70q65 65 158 65 91 0 158-66t67-159-67-159-158-66q-93 0-159 66l-71 69-74-70q-65-65-158-65t-159 66-66 159z m225 95q-39 0-67-28t-28-67q0-40 28-68t68-28 68 28l69 68-69 66q-29 29-68 29z m529-163q28 28 28 68t-28 68-67 28-67-28l-70-68 69-66q28-28 68-28t68 27z" horiz-adv-x="911" />
<glyph glyph-name="infinity-1" unicode="&#xe9ff;" d="M796 570q84 0 144-53t60-167q0-112-60-166t-144-54q-78 0-157 40t-139 106q-58-66-137-106t-157-40q-86 0-146 54t-60 166q0 114 60 167t146 53q78 0 157-39t137-105q58 66 138 105t158 39z m-590-352q60 0 127 37t113 95q-46 58-112 95t-128 37q-114 0-114-132t114-132z m590 0q114 0 114 132t-114 132q-62 0-129-37t-111-95q44-58 111-95t129-37z" horiz-adv-x="1000" />
<glyph glyph-name="plus-squared-1" unicode="&#xeaca;" d="M700 750q42 0 71-29t29-71l0-600q0-40-29-70t-71-30l-600 0q-40 0-70 30t-30 70l0 600q0 42 30 71t70 29l600 0z m-50-450l0 100-200 0 0 200-100 0 0-200-200 0 0-100 200 0 0-200 100 0 0 200 200 0z" horiz-adv-x="800" />
<glyph glyph-name="home-1" unicode="&#xe80b;" d="M786 296l0-268q0-15-11-25t-25-11l-214 0 0 214-143 0 0-214-214 0q-15 0-25 11t-11 25l0 268q0 1 0 2t0 2l321 264 321-264q1-1 1-3z m124 39l-35-41q-4-5-12-6l-2 0q-7 0-12 4l-386 322-386-322q-7-4-13-4-7 1-12 6l-35 41q-4 6-4 13t6 12l401 334q18 15 42 15t42-15l136-114 0 109q0 8 5 13t13 5l107 0q8 0 13-5t5-13l0-228 122-102q6-4 6-12t-4-13z" horiz-adv-x="928.571" />
<glyph glyph-name="home-4" unicode="&#xe8fc;" d="M885 575l276 0 0-90-1161 0 0 90 548 0 0 173 338 0 0-173z m-778-134l944 0 0-489-569 0 0 300-170 0 0-300-205 0 0 489z m671-245l0 176-146 0 0-176 146 0z m191 0l0 176-146 0 0-176 146 0z" horiz-adv-x="1161" />
<glyph glyph-name="home-5" unicode="&#xebed;" d="M0 340q-3 15 21 37l381 351q23 21 57 21t57-21l380-351q23-21 21-37t-30-15l-91 0 0-305q0-32-23-55t-55-23l-518 0q-32 0-55 23t-23 55l0 305-92 0q-27 0-30 15z" horiz-adv-x="916.504" />
<glyph glyph-name="home" unicode="&#x2302;" d="M888 336q16-16 11-27t-27-11l-84 0 0-310q0-14-1-21t-8-13-23-6l-204 0 0 310-204 0 0-310-194 0q-28 0-35 10t-7 30l0 310-84 0q-22 0-27 11t11 27l400 402q16 16 38 16t38-16z" horiz-adv-x="900" />
<glyph glyph-name="home-2" unicode="&#xe865;" d="M464 797l447-446-112 0 0-447-669 0 0 447-112 0z m224-781l0 401-224 157-223-157 0-401 168 0 0 168 112 0 0-168 167 0z" horiz-adv-x="928" />
<glyph glyph-name="hourglass-1" unicode="&#xec17;" d="M0-37l0 70q0 22 12 49t24 46 38 55l24 32t27 36 22 33 18 35 6 30-6 30-18 35-22 33-27 36l-24 32q-26 37-38 55t-24 46-12 49l0 70q0 34 24 58t59 24l419 0q35 0 59-24t24-58l0-70q0-22-12-49t-24-46-38-55l-24-32t-27-36-22-33-18-35-6-30 6-30 18-35 22-33 27-36l24-32q25-36 38-55t24-46 12-49l0-70q0-34-24-58t-59-24l-419 0q-35 0-59 24t-24 58z m100 35l40 0q0 8 2 17t9 18 12 17 17 17 19 16 22 17 23 16 25 17 24 17q8-5 27-19t28-20 25-18 24-20 19-19 16-20 10-19 4-20l40 0 0 35q0 7-13 31-8 14-42 63-53 75-71 108-34 63-34 115 0 26 8 54t25 58 30 49 36 51l7 10q33 46 42 63 6 10 9 17t4 10l0 2 0 35-386 0 0-35q0-8 13-30 10-17 42-63 53-75 71-108 34-63 34-115 0-26-8-54t-25-58-30-49-36-51q-1-1-2-2t-2-2-2-3-2-3q-34-49-42-63-13-24-13-31l0-35z" horiz-adv-x="585.938" />
<glyph glyph-name="keyboard" unicode="&#x2328;" d="M930 650q28 0 49-21t21-49l0-460q0-30-21-50t-49-20l-860 0q-28 0-49 20t-21 50l0 460q0 28 21 49t49 21l860 0z m-380-100l0-100 100 0 0 100-100 0z m150-150l-100 0 0-100 100 0 0 100z m-300 150l0-100 100 0 0 100-100 0z m150-150l-100 0 0-100 100 0 0 100z m-300 150l0-100 100 0 0 100-100 0z m150-150l-100 0 0-100 100 0 0 100z m-300 150l0-100 100 0 0 100-100 0z m150-150l-100 0 0-100 100 0 0 100z m-50-250l0 100-100 0 0-100 100 0z m550 0l0 100-500 0 0-100 500 0z m150 0l0 100-100 0 0-100 100 0z m-150 150l100 0 0 100-100 0 0-100z m150 150l0 100-200 0 0-100 200 0z" horiz-adv-x="1000" />
<glyph glyph-name="split" unicode="&#x2387;" d="M576 797l112 0 0-108q0-115-82-197l-316-314q-44-45-48-106l111 0-167-168-168 168 113 0q6 111 80 185l316 314q49 50 49 118l0 108z m110-725l113 0-167-168-168 168 111 0q-4 61-48 106l-63 62 80 79 62-62q74-74 80-185z" horiz-adv-x="817" />
<glyph glyph-name="pause-1" unicode="&#xe836;" d="M857 743l0-786q0-15-11-25t-25-11l-286 0q-15 0-25 11t-11 25l0 786q0 15 11 25t25 11l286 0q15 0 25-11t11-25z m-500 0l0-786q0-15-11-25t-25-11l-286 0q-15 0-25 11t-11 25l0 786q0 15 11 25t25 11l286 0q15 0 25-11t11-25z" horiz-adv-x="857.143" />
<glyph glyph-name="pause" unicode="&#x2389;" d="M440 700q90 0 90-64l0-570q0-66-90-66t-90 66l0 570q0 64 90 64z m-350 0q90 0 90-64l0-570q0-66-90-66t-90 66l0 570q0 64 90 64z" horiz-adv-x="530" />
<glyph glyph-name="pause-2" unicode="&#xe88c;" d="M18-97l0 893 223 0 0-893-223 0z m446 0l0 893 224 0 0-893-224 0z" horiz-adv-x="705" />
<glyph glyph-name="eject-1" unicode="&#x23cf;" d="M18 239l446 558 447-558-893 0z m0-335l0 223 892 0 0-223-892 0z" horiz-adv-x="928" />
<glyph glyph-name="fast-fw" unicode="&#x23e9;" d="M866 374q14-10 14-24t-14-22l-372-248q-22-14-37-6t-15 36l0 482q0 28 15 36t37-6z m-454 0q14-10 14-24t-14-22l-360-248q-20-14-36-6t-16 36l0 482q0 28 16 36t36-6z" horiz-adv-x="880" />
</font>
</defs>
</svg>
